Ошибка

Эверест: За Гранью возможного (Сезон 3) (5 серий из 5) / Everest: Beyond the Limit [2009, документальный, SATRip] Eng + Sub (Rus)

Ответить на тему
 
Автор Сообщение

egor1908

Стаж: 6 лет 10 месяцев

Сообщений: 95

Рейтинг

post 22-Июл-2015 19:51 0[+]

[Цитировать] 

Эверест: За Гранью возможного (Сезон 3) (5 серий из 5) / Everest: Beyond the Limit

Сезон 1 | Сезон 2

Год выпуска: 2009
Страна: США / USA
Жанр: документальный, приключения
Продолжительность: 5x ~41 минут

Перевод: нет
Субтитры: Русские, отдельно, .srt.
Режиссер: Эд Веннер, Барни Ревилл, Эд Уордл.
В ролях (3 сезон): Расселл Брайс (Russell Brice), Фурба Таши (Phurba Tashi), и члены группы.
Описание:
Эверест не жалеет тех, кто бросает ему вызов, и сурово награждает тех, кому удается его покорить. Станьте свидетелями того, как группа отважных альпинистов под началом новозеландца Расселла Брайса будет штурмовать склоны Эвереста, превозмогая нечеловеческие физические и эмоциональные нагрузки.

Благодаря новейшим методам съемки на больших высотах, вы увидите захватывающие и шокирующие кадры из дневника команды Брайса, которой удалось совершить невозможное

Wikipedia

Качество: SATRip
Формат: AVI
Видео кодек: DivX
Аудио кодек: MP3
Видео: 640x360, XviD, 29.97fps, ~1000kbps
Аудио: MP3, 44100Hz, 2.0 stereo, ~128kbps (ENG)
General
Complete name : Everest.Beyond.The.Limit.S03E01.01.First.Summit.avi
Format : DivX
Format/Info : Hack of AVI
File size : 336 MiB
Duration : 41mn 10s
Overall bit rate : 1 140 Kbps

Video
ID : 0
Format : MPEG-4 Visual
Format settings, BVOP : 1
Format settings, QPel : No
Format settings, GMC : No warppoints
Format settings, Matrix : Default (H.263)
Muxing mode : Packed bitstream
Codec ID : DX50
Codec ID/Hint : DivX 5
Duration : 41mn 10s
Bit rate : 1 000 Kbps
Width : 640 pixels
Height : 360 pixels
Display aspect ratio : 16:9
Frame rate : 29.970 fps
Color space : YUV
Chroma subsampling : 4:2:0
Bit depth : 8 bits
Scan type : Progressive
Compression mode : Lossy
Bits/(Pixel*Frame) : 0.145
Stream size : 295 MiB (88%)
Writing library : DivX 2310

Audio
ID : 1
Format : MPEG Audio
Format version : Version 1
Format profile : Layer 3
Mode : Joint stereo
Mode extension : MS Stereo
Codec ID : 55
Codec ID/Hint : MP3
Duration : 41mn 10s
Bit rate mode : Constant
Bit rate : 128 Kbps
Channel(s) : 2 channels
Sampling rate : 44.1 KHz
Compression mode : Lossy
Stream size : 37.7 MiB (11%)
Alignment : Split accross interleaves
Interleave, duration : 33 ms (1.00 video frame)
Interleave, preload duratio : 500 ms
Title : Audio

info [Профиль]  [ЛС] 

Jasfin

Пол: Пол:Муж

Стаж: 6 лет 1 месяц

Сообщений: 25

Украина
Рейтинг

post 26-Июл-2015 11:28 (спустя 3 дня) [-]1[+]

[Цитировать] 

Жду! Улыбаюсь
info [Профиль]  [ЛС] 

post 26-Июл-2015 12:52 (спустя 1 час 24 минуты) [-]0[+]

Топик был перенесен из форума Анонсы в форум Документальные фильмы и телепередачи

koss555
 
Показать сообщения:    
Ответить на тему

Текущее время: 09-Дек 15:35

Часовой пояс: GMT + 4



Вы не можете начинать темы
Вы не можете отвечать на сообщения
Вы не можете редактировать свои сообщения
Вы не можете удалять свои сообщения
Вы не можете голосовать в опросах
Вы не можете прикреплять файлы к сообщениям
Вы не можете скачивать файлы