Ошибка

Эверест: За Гранью возможного (Сезон 1) (6 серий из 6) / Everest: Beyond the Limit [2006, документальный, TVRip] Eng + Rus

Ответить на тему
 
Автор Сообщение

egor1908

Стаж: 6 лет 10 месяцев

Сообщений: 95

Рейтинг

post 22-Июл-2015 14:35 0[+]

[Цитировать] 

Эверест: За Гранью возможного (Сезон 1) (6 серий из 6) / Everest: Beyond the Limit

Сезон 2 | Сезон 3

Год выпуска: 2006
Страна: США / USA
Жанр: документальный, приключения
Продолжительность: 6x ~43 минуты

Перевод: Одноголосый закадровый, от Discovery Russia (отдельный рип).
Субтитры: отсутствуют
Режиссер: Эд Веннер, Барни Ревилл, Эд Уордл.
В ролях (1 сезон): Расселл Брайс (Russell Brice), Фурба Таши (Phurba Tashi), Макс Чайа (Max Chaya), Марк Инглис (Mark Inglis), Могенс Йенсен (Mogens Jensen), Брент Меррелл (Brent Merrell), Терри О'Коннор (Terry O'Connor), Тим Медвец (Tim Medvetz).
Описание:
Эверест не жалеет тех, кто бросает ему вызов, и сурово награждает тех, кому удается его покорить. Станьте свидетелями того, как группа отважных альпинистов под началом новозеландца Расселла Брайса будет штурмовать склоны Эвереста, превозмогая нечеловеческие физические и эмоциональные нагрузки.

Благодаря новейшим методам съемки на больших высотах, вы увидите захватывающие и шокирующие кадры из дневника команды Брайса, которой удалось совершить невозможное

Wikipedia

Качество: TVRip
Формат: AVI
Видео кодек: XviD
Аудио кодек: MP3
ENG Видео: 640x360, XviD, 29.97fps, ~991kbps
ENG Аудио: MP3, 44100Hz, 2.0 stereo, ~127kbps
RUS Видео: 720x480, XviD, 29.97fps, ~2031kbps
RUS Аудио: MP3, 48000Hz, 2.0 stereo, ~128kbps
General
Complete name : Everest - Beyond the Limit [S01E01].avi
Format : AVI
Format/Info : Audio Video Interleave
File size : 350 MiB
Duration : 43mn 18s
Overall bit rate : 1 131 Kbps
Writing application : VirtualDubMod 1.5.10.2 (build 2540/release)
Writing library : VirtualDubMod build 2540/release

Video
ID : 0
Format : MPEG-4 Visual
Format profile : Simple@L3
Format settings, BVOP : No
Format settings, QPel : No
Format settings, GMC : No warppoints
Format settings, Matrix : Default (H.263)
Codec ID : XVID
Codec ID/Hint : XviD
Duration : 43mn 18s
Bit rate : 991 Kbps
Width : 640 pixels
Height : 360 pixels
Display aspect ratio : 16:9
Frame rate : 29.970 fps
Color space : YUV
Chroma subsampling : 4:2:0
Bit depth : 8 bits
Scan type : Progressive
Compression mode : Lossy
Bits/(Pixel*Frame) : 0.144
Stream size : 307 MiB (88%)
Writing library : XviD 1.2.0SMP (UTC 2006-01-08)

Audio
ID : 1
Format : MPEG Audio
Format version : Version 1
Format profile : Layer 3
Mode : Joint stereo
Mode extension : MS Stereo
Codec ID : 55
Codec ID/Hint : MP3
Duration : 43mn 18s
Bit rate mode : Constant
Bit rate : 128 Kbps
Channel(s) : 2 channels
Sampling rate : 44.1 KHz
Compression mode : Lossy
Stream size : 39.6 MiB (11%)
Alignment : Split accross interleaves
Interleave, duration : 33 ms (1.00 video frame)
Interleave, preload duratio : 501 ms
General
Complete name : Discovery_Эверест_1_Мечты о Вершине.avi
Format : AVI
Format/Info : Audio Video Interleave
File size : 700 MiB
Duration : 45mn 9s
Overall bit rate : 2 166 Kbps
Writing application : VirtualDubMod 1.5.4.1 (build 2178/release)
Writing library : VirtualDubMod build 2178/release

Video
ID : 0
Format : MPEG-4 Visual
Format profile : Advanced Simple@L5
Format settings, BVOP : 1
Format settings, QPel : No
Format settings, GMC : No warppoints
Format settings, Matrix : Custom
Codec ID : XVID
Codec ID/Hint : XviD
Duration : 45mn 9s
Bit rate : 2 031 Kbps
Width : 720 pixels
Height : 480 pixels
Display aspect ratio : 3:2
Frame rate : 25.000 fps
Color space : YUV
Chroma subsampling : 4:2:0
Bit depth : 8 bits
Scan type : Progressive
Compression mode : Lossy
Bits/(Pixel*Frame) : 0.235
Stream size : 656 MiB (94%)
Writing library : XviD 1.2.0.dev47 (UTC 2006-11-01)

Audio
ID : 1
Format : MPEG Audio
Format version : Version 1
Format profile : Layer 3
Mode : Joint stereo
Mode extension : MS Stereo
Codec ID : 55
Codec ID/Hint : MP3
Duration : 45mn 9s
Bit rate mode : Constant
Bit rate : 128 Kbps
Channel(s) : 2 channels
Sampling rate : 48.0 KHz
Compression mode : Lossy
Stream size : 41.3 MiB (6%)
Alignment : Split accross interleaves
Interleave, duration : 80 ms (2.00 video frames)
Interleave, preload duratio : 500 ms

(26.07.2015) Раздача обновлена. Добавлен рип Discovery Russia.
info [Профиль]  [ЛС] 

egor1908

Стаж: 6 лет 10 месяцев

Сообщений: 95

Рейтинг

post 22-Июл-2015 20:27 (спустя 5 часов) [-]0[+]

[Цитировать] 

Качество TVRip.
На данный момент это самое высокое качество, которое я смог найти. Большего на просторах интернета просто не существует.

Для любителей смотреть в оригинале:
В английском релизе, в местах где речь сложно различить, есть вставки текста (не субтитры). Возможно, это важно для тех у кого не очень с английским Улыбаюсь

_________________
info [Профиль]  [ЛС] 

lampard960

Пол: Пол:Муж

Стаж: 4 года 11 месяцев

Сообщений: 619

Ангилья
Рейтинг

post 23-Июл-2015 08:55 (спустя 12 часов) [-]0[+]

[Цитировать] 

скоро кино выйдет про эту гору. вот там тоже очень красиво снято. правда тут без графики пк обошлось . натур продукт)

_________________
info [Профиль]  [ЛС] 

Jasfin

Пол: Пол:Муж

Стаж: 6 лет 1 месяц

Сообщений: 25

Украина
Рейтинг

post 26-Июл-2015 11:29 (спустя 3 дня) [-]0[+]

[Цитировать] 

А есть субтитры к этому сезону ?
info [Профиль]  [ЛС] 

egor1908

Стаж: 6 лет 10 месяцев

Сообщений: 95

Рейтинг

post 26-Июл-2015 13:45 (спустя 2 часа 15 минут) [-]0[+]

[Цитировать] 

(26.07.2015) torrent-файл обновлён
Добавлен рип Discovery Russia.

Jasfin писал(а):

А есть субтитры к этому сезону ?
К сожалению, нигде не нашёл. Зато наконец-то получил права на обновление torrent-файлов, и добавил русский рип.

UPD: У меня диск посыпался, момент, как разберусь - стану на раздачу.
UPD2: Залил раздачу на сидбокс, странно что отдаёт так слабо. С диском разбираюсь, еще 3 терабайта восстановить надо.

_________________
info [Профиль]  [ЛС] 

BZzz

Пол: Пол:Муж

Стаж: 5 лет 1 месяц

Сообщений: 3647

Россия
Рейтинг

post 26-Июл-2015 14:58 (спустя 1 час 13 минут) [-]0[+]

[Цитировать] 

egor1908
 !  BZzz:
Укажите правильно пункт Перевод.

Цитата:

Субтитры: отсутствуют (Английские...
Это как? Исправьте.
Укажите и русскоязычные имена актёров.
Добавьте отчёт MediaInfo для обоих разрешений.

_________________
info [Профиль]  [ЛС] 

egor1908

Стаж: 6 лет 10 месяцев

Сообщений: 95

Рейтинг

post 26-Июл-2015 16:23 (спустя 1 час 24 минуты) [-]0[+]

[Цитировать] 

BZzz писал(а):

egor1908
Исправил. Правильно?

http://i.imgur.com/R5fn32e.png как называются такие "субтитры"? Указал как можно понятнее, т.к это простые врезки текста, как к примеру имена людей.
Кто нибудь знает?

С именами актёров сложнее - они даже на кинопоиске указаны по английски, так как это обычные люди участвующие в экспедиции. Из русских имён только лидер экспедиции. По русски я их могу добавить, но дело в том что они даже не гуглятся.
Могу оставить их по английски?

_________________
info [Профиль]  [ЛС] 

BZzz

Пол: Пол:Муж

Стаж: 5 лет 1 месяц

Сообщений: 3647

Россия
Рейтинг

post 26-Июл-2015 21:05 (спустя 4 часа) [-]0[+]

[Цитировать] 

 !  BZzz:

Цитата:

Субтитры: отсутствуют (В английском релизе: вставки с текстом...
Русские или английские, укажите.
Иправьте по аналогии соседние ваши темы.

_________________
info [Профиль]  [ЛС] 

MuPHoB

Пол: Пол:Муж

Стаж: 3 года 6 месяцев

Сообщений: 51

Россия
Рейтинг

post 27-Июл-2015 13:40 (спустя 16 часов) [-]0[+]

[Цитировать] 

egor1908,спасибо за возможность лицезреть и пережить восхождение с участниками группы!
info [Профиль]  [ЛС] 

egor1908

Стаж: 6 лет 10 месяцев

Сообщений: 95

Рейтинг

post 27-Июл-2015 13:44 (спустя 4 минуты) [-]0[+]

[Цитировать] 

MuPHoB писал(а):

egor1908,спасибо за возможность лицезреть и пережить восхождение с участниками группы!
Пожалуйста =)

_________________
info [Профиль]  [ЛС] 
Показать сообщения:    
Ответить на тему

Текущее время: 08-Дек 18:31

Часовой пояс: GMT + 4



Вы не можете начинать темы
Вы не можете отвечать на сообщения
Вы не можете редактировать свои сообщения
Вы не можете удалять свои сообщения
Вы не можете голосовать в опросах
Вы не можете прикреплять файлы к сообщениям
Вы не можете скачивать файлы