Ошибка

До окончания фрилича осталось:


Парад Смерти / Death Parade [TV] [1-12 из 12] [2015г.] [Приключения, мистика, драма] [HDTVRip] [720p] [без хардсаба] [Субтитры(JАP)]

Ответить на тему
 
Автор Сообщение

Buuurik

Пол: Пол:Муж

Стаж: 3 года 8 месяцев

Сообщений: 57

Норфолк
Рейтинг

post 09-Июл-2015 06:01 4[+]

[Цитировать] 

Парад Смерти
デス・パレード / Death Parade

Год выпуска: 2015
Страна: Япония
Жанр: Приключения, мистика, драма
Тип: ТВ
Продолжительность: 12 эпизода, 25 мин./серия
Студия:
Режиссер: Татикава Юдзуру
Автор оригинала: Татикава Юдзуру
Видео: 1280x720, 1348Kbps, 23.976fps, (8 bit), H.264
Аудио: AAC, 48 КГц, 192Kbps (2ch)
Перевод: субтитры (ASS)
Субтитры: LeDi-MaHo Team
Описание:
Все там будем – это однозначно, но большинство религий учит, что достойная жизнь принесет некие бонусы, недостойная приведет к долгим и неприятным процедурам, а кто жил серединка на половинку, тоже получит по заслугам. Но где и как такое решается? Тут мнения жрецов и пророков разошлись: кто рисует апостола Петра, кто – узенький мостик над огненной пропастью… А на деле все проще, и вход в чистилище можно найти в обычном питейном заведении, куда заглядывают самые разные личности!

Конечно, бар «Пятнадцать» - лишь один из постов царства мертвых, специализирующийся на парных случаях. То есть, если два человека умерли примерно в одно время, их доставляют в бар и предлагают сыграть в интересную игру, ставки которой становятся известны ближе к финалу. Тут и начинается самое интересное, обнажающее истинную человеческую суть. А дальше бесстрастный бармен принимает решение, которое обжалованию не подлежит… Ну, не знаю, как вы, а я по барам больше не хожу!(World Art)

Формат : MPEG-4
Профиль формата : Base Media
Идентификатор кодека : isom
Размер файла : 253 Мбайт
Продолжительность : 23 м.
Режим общего битрейта : Переменный
Общий поток : 1541 Кбит/сек
Дата кодирования : UTC 2015-01-09 18:00:29
Дата пометки : UTC 2015-01-09 18:00:29

Видео
Идентификатор : 1
Формат : AVC
Формат/Информация : Advanced Video Codec
Профиль формата : High@L4.0
Параметр CABAC формата : Да
Параметр ReFrames формата : 6 кадров
Идентификатор кодека : avc1
Идентификатор кодека/Информация : Advanced Video Coding
Продолжительность : 23 м.
Битрейт : 1348 Кбит/сек
Максимальный битрейт : 18,1 Мбит/сек
Ширина : 1280 пикселей
Высота : 720 пикселей
Соотношение сторон : 16:9
Режим частоты кадров : Постоянный
Частота кадров : 23,976 кадра/сек
Цветовое пространство : YUV
Субдискретизация насыщенности : 4:2:0
Битовая глубина : 8 бит
Тип развёртки : Прогрессивная
Бит/(Пиксели*Кадры) : 0.061
Размер потока : 222 Мбайт (88%)
Библиотека кодирования : x264 core 132 r2309+704+40 1360ac3 tMod [8-bit@4:2:0 X86]
Настройки программы : cabac=1 / ref=6 / deblock=1:1:1 / analyse=0x3:0x2 / me=umh / subme=9 / psy=1 / fade_compensate=0.00 / psy_rd=0.40:0.00 / mixed_ref=1 / me_range=32 / chroma_me=1 / trellis=2 / 8x8dct=1 / cqm=0 / deadzone=21,11 / fast_pskip=1 / chroma_qp_offset=0 / threads=12 / lookahead_threads=1 / sliced_threads=0 / nr=0 / decimate=1 / interlaced=0 / bluray_compat=0 / constrained_intra=0 / fgo=0 / bframes=6 / b_pyramid=2 / b_adapt=2 / b_bias=0 / direct=1 / weightb=1 / open_gop=0 / weightp=2 / keyint=250 / keyint_min=23 / scenecut=40 / intra_refresh=0 / rc_lookahead=50 / rc=crf / mbtree=1 / crf=18.0000 / qcomp=0.60 / qpmin=0 / qpmax=69 / qpstep=4 / ip_ratio=1.40 / aq=1:0.60 / aq-sensitivity=10.00 / aq-factor=1.00:1.00:1.00 / aq2=0 / aq3=0
Дата кодирования : UTC 2015-01-09 18:00:25
Дата пометки : UTC 2015-01-09 18:00:30

Аудио
Идентификатор : 2
Формат : AAC
Формат/Информация : Advanced Audio Codec
Профиль формата : LC
Идентификатор кодека : 40
Продолжительность : 23 м.
Вид битрейта : Переменный
Битрейт : 192 Кбит/сек
Максимальный битрейт : 197 Кбит/сек
Каналы : 2 канала
Расположение каналов : Front: L R
Частота : 48,0 КГц
Метод сжатия : С потерями
Размер потока : 31,0 Мбайт (12%)
Язык : Japanese
Дата кодирования : UTC 2015-01-09 18:00:29
Дата пометки : UTC 2015-01-09 18:00:30
info [Профиль]  [ЛС] 

post 11-Июл-2015 02:26 (спустя 1 день 20 часов) [-]0[+]

Топик был перенесен из форума Анонсы в форум HD Rips

Алмаз
 

KoSoЙ

Пол: Пол:Муж

Стаж: 7 лет 8 месяцев

Сообщений: 78

Россия
Рейтинг

post 11-Июл-2015 22:16 (спустя 2 дня 16 часов) [-]2[+]

[Цитировать] 

Просто шикарный опенинг + шикарная рисовка + совершенно необычная тема и сюжет = гениальное аниме
info [Профиль]  [ЛС] 

WARD

Стаж: 4 года 11 месяцев

Сообщений: 9

Рейтинг

post 26-Сен-2015 20:43 (спустя 2 месяца 14 дней) [-]0[+]

[Цитировать] 

Всем любителям аниме смотреть однозначно! Это то что надо, давно такого берущего за душу не смотрел. Наряду с классикой жанра навсегда останется в моей коллекции!
info [Профиль]  [ЛС] 

WARD

Стаж: 4 года 11 месяцев

Сообщений: 9

Рейтинг

post 27-Сен-2015 19:21 (спустя 22 часа) [-]0[+]

[Цитировать] 

Вчера досмотрел, откомментировал, задумался о жизни и смерти а сегодня чуть не разбился на самолете (я второй пилот, управление заклинило, еле спаслись).
Осторожнее с этим аниме ребята, тут магия какая-то.
info [Профиль]  [ЛС] 
Показать сообщения:    
Ответить на тему

Текущее время: 10-Дек 16:53

Часовой пояс: GMT + 4



Вы не можете начинать темы
Вы не можете отвечать на сообщения
Вы не можете редактировать свои сообщения
Вы не можете удалять свои сообщения
Вы не можете голосовать в опросах
Вы не можете прикреплять файлы к сообщениям
Вы не можете скачивать файлы