Ошибка

Дом / Home (Тим Джонсон) [2015, мультфильм, фантастика, фэнтези, комедия, приключения, BDRip 1080p] Dub + Eng + Ukr + Sub от R.G.TNClub

Ответить на тему
 
Автор Сообщение

R.G. TNClub

Стаж: 2 года 10 месяцев

Сообщений: 515

Рейтинг

post 06-Июл-2015 09:23 6[+]

[Цитировать] 

Дом / Home
«Контакт неизбежен»

Страна: США
Жанр: мультфильм, фантастика, фэнтези, комедия, приключения, семейный
Год выпуска: 2015
Продолжительность: 01:33:43
Перевод:
  • Профессиональный (дублированный) [Лицензия EUR] - русский
  • Профессиональный (дублированный) [Лицензия EUR] - украинский
Оригинальная дорожка: английский
Субтитры: русские, английские, украинские
Главы: есть

Режиссер: Тим Джонсон
В ролях: Джим Парсонс / Jim Parsons (Oh, озвучка), Рианна / Rihanna (Gratuity «Tip» Tucci, озвучка), Стив Мартин / Steve Martin (Captain Smek, озвучка), Дженнифер Лопез / Jennifer Lopez (Lucy, озвучка), Мэтт Джонс / Matt Jones (Kyle, озвучка), Брайан Степанек / Brian Stepanek (Gorg Commander / Father / Boov, озвучка), Эйприл Стрюбинг / April Struebing (в титрах: April M. Lawrence) (Boov Announcer, озвучка), Стивен Кеарин / Stephen Kearin (Boov, озвучка)


Описание: Захватив Землю, раса пришельцев Був тут же начинает заниматься её благоустройством и реорганизацией. «Не стоит благодарности!» — заявляют они землянам, собранным на время в отдельных резервациях. Находчивая и рисковая девочка по имени Дар, чудом сбежавшая от пришельцев, встречает на своем пути самого раздражающе-оптимистичного Бува по имени О, отвергнутого своими инопланетными собратьями. Этой, казалось бы, несовместимой парочке предстоит спасти нашу планету. Хорошо, что у них есть летающий автомобиль!

Качество видео: BDRip 1080p (энкод EPiC)
Формат видео: MKV

Видео: MPEG-4 AVC Video ~14.0 mbp / 1920 x 1040 / 23,976 fps / 1.85:1 / High Profile 4.1
Аудио:
  • Russian: 48 kHz, AC3 Dolby Digital, 3/2 (L,C,R,l,r) + LFE ch, ~640 kbps
  • Ukrainian: 48 kHz, AC3 Dolby Digital, 3/2 (L,C,R,l,r) + LFE ch, ~448 kbps
  • English: 48 kHz, AC3 Dolby Digital, 3/2 (L,C,R,l,r) + LFE ch, ~640 kbps
Формат субтитров: softsub (SRT)

Раздача от &
Home.2015.COMPLETE.BLURAY-XORBiTANT
Общее
Уникальный идентификатор : 248269617070877719634128101110100715845 (0xBAC6FD2DC8523FA28C71E83EF8EAE945)
Полное имя : D:\L@TNClub\Home.2015.BluRay.1080p.3xDD.5.1.x264-TNClub.mkv
Формат : Matroska
Версия формата : Version 2
Размер файла : 10,3 Гбайт
Продолжительность : 1 ч. 33 м.
Общий поток : 15,7 Мбит/сек
Название фильма : L@TNClub: Дом / Home (2015)
Дата кодирования : UTC 2015-07-06 05:19:13
Программа кодирования : mkvmerge v3.2.0 ('Beginnings') built on Feb 12 2010 16:46:17
Библиотека кодирования : libebml v0.7.9 + libmatroska v0.8.1
Attachements : cover.png

Видео
Идентификатор : 1
Формат : AVC
Формат/Информация : Advanced Video Codec
Профиль формата : High@L4.1
Параметр CABAC формата : Да
Параметр ReFrames формата : 4 кадра
Идентификатор кодека : V_MPEG4/ISO/AVC
Продолжительность : 1 ч. 33 м.
Битрейт : 14,0 Мбит/сек
Ширина : 1920 пикселей
Высота : 1040 пикселей
Соотношение сторон : 1,85:1
Режим частоты кадров : Постоянный
Частота кадров : 23,976 кадра/сек
Цветовое пространство : YUV
Субдискретизация насыщенности : 4:2:0
Битовая глубина : 8 бит
Тип развёртки : Прогрессивная
Бит/(Пиксели*Кадры) : 0.292
Размер потока : 8,97 Гбайт (87%)
Библиотека кодирования : x264 core 142 r2409+42 04be48a tMod [8-bit@all X86_64]
Настройки программы : cabac=1 / ref=4 / deblock=1:-3:-3 / analyse=0x3:0x133 / me=umh / subme=11 / psy=1 / fade_compensate=0.00 / psy_rd=0.40:0.00 / mixed_ref=1 / me_range=24 / chroma_me=1 / trellis=2 / 8x8dct=1 / cqm=0 / deadzone=21,11 / fast_pskip=1 / chroma_qp_offset=-2 / threads=12 / lookahead_threads=2 / sliced_threads=0 / nr=0 / decimate=1 / interlaced=0 / bluray_compat=0 / constrained_intra=0 / fgo=0 / bframes=9 / b_pyramid=2 / b_adapt=2 / b_bias=0 / direct=3 / weightb=1 / open_gop=0 / weightp=2 / keyint=240 / keyint_min=23 / scenecut=40 / intra_refresh=0 / rc_lookahead=60 / rc=2pass / mbtree=1 / bitrate=14000 / ratetol=1.0 / qcomp=0.60 / qpmin=10:10:10 / qpmax=51:51:51 / qpstep=4 / cplxblur=20.0 / qblur=0.5 / vbv_maxrate=40000 / vbv_bufsize=30000 / nal_hrd=none / filler=0 / ip_ratio=1.40 / aq=1:0.60 / aq-sensitivity=10.00 / aq-factor=1.00:1.00:1.00 / aq2=0 / aq3=0
Язык : English
Default : Нет
Forced : Нет

Аудио #1
Идентификатор : 2
Формат : AC-3
Формат/Информация : Audio Coding 3
Расширение режима : CM (complete main)
Параметр Endianness формата : Big
Идентификатор кодека : A_AC3
Продолжительность : 1 ч. 33 м.
Вид битрейта : Постоянный
Битрейт : 640 Кбит/сек
Каналы : 6 каналов
Расположение каналов : Front: L C R, Side: L R, LFE
Частота : 48,0 КГц
Метод сжатия : С потерями
Размер потока : 429 Мбайт (4%)
Заголовок : Дубляж, EUR, DD 5.1 @ 640
Язык : Russian
Default : Да
Forced : Нет

Аудио #2
Идентификатор : 3
Формат : AC-3
Формат/Информация : Audio Coding 3
Расширение режима : CM (complete main)
Параметр Endianness формата : Big
Идентификатор кодека : A_AC3
Продолжительность : 1 ч. 33 м.
Вид битрейта : Постоянный
Битрейт : 448 Кбит/сек
Каналы : 6 каналов
Расположение каналов : Front: L C R, Side: L R, LFE
Частота : 48,0 КГц
Метод сжатия : С потерями
Размер потока : 301 Мбайт (3%)
Заголовок : Дубляж,EUR, DD 5.1 @ 640
Язык : Ukrainian
Default : Нет
Forced : Нет

Аудио #3
Идентификатор : 4
Формат : AC-3
Формат/Информация : Audio Coding 3
Расширение режима : CM (complete main)
Параметр Endianness формата : Big
Идентификатор кодека : A_AC3
Продолжительность : 1 ч. 33 м.
Вид битрейта : Постоянный
Битрейт : 640 Кбит/сек
Каналы : 6 каналов
Расположение каналов : Front: L C R, Side: L R, LFE
Частота : 48,0 КГц
Метод сжатия : С потерями
Размер потока : 429 Мбайт (4%)
Заголовок : Оригинал, DD 5.1 @ 640
Язык : English
Default : Нет
Forced : Нет

Текст #1
Идентификатор : 5
Формат : UTF-8
Идентификатор кодека : S_TEXT/UTF8
Идентификатор кодека/Информация : UTF-8 Plain Text
Язык : Russian
Default : Да
Forced : Нет

Текст #2
Идентификатор : 6
Формат : UTF-8
Идентификатор кодека : S_TEXT/UTF8
Идентификатор кодека/Информация : UTF-8 Plain Text
Язык : Ukrainian
Default : Нет
Forced : Нет

Текст #3
Идентификатор : 7
Формат : UTF-8
Идентификатор кодека : S_TEXT/UTF8
Идентификатор кодека/Информация : UTF-8 Plain Text
Язык : English
Default : Нет
Forced : Нет

Меню #1
00:00:00.000 : en:00:00:00.000
00:03:43.723 : en:00:03:43.723
00:07:28.406 : en:00:07:28.406
00:11:19.470 : en:00:11:19.470
00:14:26.949 : en:00:14:26.949
00:17:58.953 : en:00:17:58.953
00:21:05.639 : en:00:21:05.639
00:25:18.851 : en:00:25:18.851
00:29:07.079 : en:00:29:07.079
00:33:14.618 : en:00:33:14.618
00:38:58.962 : en:00:38:58.962
00:41:31.155 : en:00:41:31.155
00:44:27.540 : en:00:44:27.540
00:46:50.933 : en:00:46:50.933
00:51:34.758 : en:00:51:34.758
00:56:25.924 : en:00:56:25.924
01:00:43.682 : en:01:00:43.682
01:03:53.496 : en:01:03:53.496
01:06:57.722 : en:01:06:57.722
01:09:44.180 : en:01:09:44.180
01:13:55.765 : en:01:13:55.765
01:18:11.770 : en:01:18:11.770
01:21:55.369 : en:01:21:55.369
01:23:56.031 : en:01:23:56.031
Пожалуйста, оставайтесь на раздаче как можно дольше!
Релиз специально для Tapochek.net
Все раздачи R.G.TNClub




Оформление by:GhostRidik
info [Профиль]  [ЛС] 

post 06-Июл-2015 09:27 (спустя 4 минуты) [-]0[+]

Топик был перенесен из форума Оформление раздач (R.G. TNClub) в форум Новинки 2014-2015 (Web-DL, DVD, HD DVD, Blu-ray, HD Rips)

L
 

chuny777

Стаж: 7 лет 9 месяцев

Сообщений: 33

Рейтинг

post 06-Июл-2015 19:20 (спустя 9 часов) [-]0[+]

[Цитировать] 

ОЧ. прикольный мульт! Жаль, но уже смотрел.
info [Профиль]  [ЛС] 

TitaniumGolem

Пол: Пол:Муж

Стаж: 6 лет 8 месяцев

Сообщений: 256

Россия
Рейтинг

post 10-Июл-2015 04:20 (спустя 3 дня) [-]-1[+]

[Цитировать] 

На разочек.

_________________
Motherboard MSI Gaming 5 Z97, Intel Core i5-4690K, 8Gb RAM DDR-3 1600 Mhz, Gigabyte Nvidia GTX670 2Gb, SB Cinema 2, Samsung 23" FullHD, HDD WD 750Gb Black; Seagate Barracuda ES 1,5TBx2; WD 1,5TB Green, Thermaltake Toughpower Grand 750W.
info [Профиль]  [ЛС] 

Hfcek

Пол: Пол:Муж

Стаж: 7 лет 11 месяцев

Сообщений: 429

Ямайка
Рейтинг

post 20-Окт-2015 10:31 (спустя 3 месяца 10 дней) [-]-1[+]

[Цитировать] 

Выпусти меня из наружи Смеюсь

смотрели в кино, не пожалели)))

_________________
...любители и профессионалы, крепкого как капронная сеть слова,
уставшими ногами подпирают мир снизу, оттуда демоны,
пускают горящие стрелы в пятки, но не в их сердце...
info [Профиль]  [ЛС] 
Показать сообщения:    
Ответить на тему

Текущее время: 29-Июн 20:08

Часовой пояс: GMT + 4



Вы не можете начинать темы
Вы не можете отвечать на сообщения
Вы не можете редактировать свои сообщения
Вы не можете удалять свои сообщения
Вы не можете голосовать в опросах
Вы не можете прикреплять файлы к сообщениям
Вы не можете скачивать файлы