Ошибка

Дом / Home (Тим Джонсон) [2015, мультфильм, фантастика, фэнтези, комедия, приключения, семейный, BDRip] Dub от R.G.TNClub

Ответить на тему
 
Автор Сообщение

R.G. TNClub

Стаж: 2 года 3 месяца

Сообщений: 515

Рейтинг

post 05-Июл-2015 19:18 5[+]

[Цитировать] 

Дом / Home
«Контакт неизбежен»

Страна: США
Жанр: мультфильм, фантастика, фэнтези, комедия, приключения, семейный
Год выпуска: 2015
Продолжительность: 01:33:43
Перевод: Профессиональный (дублированный) [Лицензия EUR] - русский

Режиссер: Тим Джонсон
В ролях: Джим Парсонс / Jim Parsons (Oh, озвучка), Рианна / Rihanna (Gratuity «Tip» Tucci, озвучка), Стив Мартин / Steve Martin (Captain Smek, озвучка), Дженнифер Лопез / Jennifer Lopez (Lucy, озвучка), Мэтт Джонс / Matt Jones (Kyle, озвучка), Брайан Степанек / Brian Stepanek (Gorg Commander / Father / Boov, озвучка), Эйприл Стрюбинг / April Struebing (в титрах: April M. Lawrence) (Boov Announcer, озвучка), Стивен Кеарин / Stephen Kearin (Boov, озвучка)


Описание: Захватив Землю, раса пришельцев Був тут же начинает заниматься её благоустройством и реорганизацией. «Не стоит благодарности!» — заявляют они землянам, собранным на время в отдельных резервациях. Находчивая и рисковая девочка по имени Дар, чудом сбежавшая от пришельцев, встречает на своем пути самого раздражающе-оптимистичного Бува по имени О, отвергнутого своими инопланетными собратьями. Этой, казалось бы, несовместимой парочке предстоит спасти нашу планету. Хорошо, что у них есть летающий автомобиль!

Качество видео: BDRip (энкод markfiter)
Формат видео: AVI

Видео: 720x384 (1.88:1), 23.976 fps, XviD build 73 ~1695 kbps avg, 0.26 bit/pixel
Аудио: 48 kHz, AC3 Dolby Digital, 3/2 (L,C,R,l,r) + LFE ch, ~384 kbps

Раздача от & markfiter

Код:

General
Complete name               : D:\Films for record\Дом.avi
Format                      : AVI
Format/Info                 : Audio Video Interleave
File size                   : 1.37 GiB
Duration                    : 1h 33mn
Overall bit rate            : 2 089 Kbps
Writing application         : VirtualDubModRus 1.5.10.2 (build 2542/release)
Writing library             : VirtualDubMod build 2542/release

Video
ID                          : 0
Format                      : MPEG-4 Visual
Format profile              : Advanced Simple@L5
Format settings, BVOP       : 2
Format settings, QPel       : No
Format settings, GMC        : No warppoints
Format settings, Matrix     : Custom
Codec ID                    : XVID
Codec ID/Hint               : XviD
Duration                    : 1h 33mn
Bit rate                    : 1 695 Kbps
Width                       : 720 pixels
Height                      : 384 pixels
Display aspect ratio        : 1.85:1
Frame rate                  : 23.976 fps
Color space                 : YUV
Chroma subsampling          : 4:2:0
Bit depth                   : 8 bits
Scan type                   : Progressive
Compression mode            : Lossy
Bits/(Pixel*Frame)          : 0.256
Stream size                 : 1.11 GiB (81%)
Writing library             : XviD 73

Audio
ID                          : 1
Format                      : AC-3
Format/Info                 : Audio Coding 3
Mode extension              : CM (complete main)
Format settings, Endianness : Big
Codec ID                    : 2000
Duration                    : 1h 33mn
Bit rate mode               : Constant
Bit rate                    : 384 Kbps
Channel(s)                  : 6 channels
Channel positions           : Front: L C R, Side: L R, LFE
Sampling rate               : 48.0 KHz
Compression mode            : Lossy
Stream size                 : 258 MiB (18%)
Alignment                   : Split accross interleaves
Interleave, duration        : 42 ms (1.00 video frame)
Interleave, preload duratio : 500 ms
Внимание! Информация о раздаче
При перезаливе указывайте, пож-та, автора рипов markfiter и R.G. TNClub, а также прикрепляйте лычку или баннер.
Пожалуйста, оставайтесь на раздаче как можно дольше!
Релиз специально для Tapochek.net
Все раздачи R.G.TNClub




Оформление by: GhostRidik
Cover by: markfiter
info [Профиль]  [ЛС] 

post 08-Июл-2015 08:04 (спустя 2 дня 12 часов) [-]0[+]

Топик был перенесен из форума Оформление раздач (R.G. TNClub) в форум Новинки 2014-2015 (Rips)

L
 

Giltias

Пол: Пол:Муж

Стаж: 6 лет 9 месяцев

Сообщений: 544

Россия
Рейтинг

post 08-Июл-2015 10:12 (спустя 2 дня 14 часов) [-]0[+]

[Цитировать] 

Овцы прямиком с Олуха) А мульт зачетный))

_________________
Знал ли Создатель в шестой день творения,что уготовано миру людей...
info [Профиль]  [ЛС] 

Алексо

Пол: Пол:Муж

Стаж: 2 года 5 месяцев

Сообщений: 149

Россия
Рейтинг

post 08-Июл-2015 20:41 (спустя 10 часов) [-]-7[+]

[Цитировать] 

Такой шлак! Мультик явно для девочек!
info [Профиль]  [ЛС] 

Poher

Пол: Пол:Муж

Стаж: 7 лет 1 месяц

Сообщений: 88

Россия
Рейтинг

post 08-Июл-2015 22:53 (спустя 2 часа 11 минут) [-]-6[+]

[Цитировать] 

да явно для детей, ибо одна болтология ригоризмическая. Мой ребёнок кое-как его досмотрел=(

_________________
Оу даа!)))
info [Профиль]  [ЛС] 

ArchMan

Пол: Пол:Муж

Стаж: 4 года 11 месяцев

Сообщений: 34

СССР
Рейтинг

post 08-Июл-2015 23:28 (спустя 34 минуты) [-]9[+]

[Цитировать] 

по любому предыдущим 2 авторам: не больше 14

_________________
info [Профиль]  [ЛС] 

DVcon

Пол: Пол:Муж

Стаж: 4 года

Сообщений: 87

Россия
Рейтинг

post 15-Июл-2015 23:02 (спустя 6 дней) [-]0[+]

[Цитировать] 

Ролюбому автор сверху школу закончил, но школотой остался.
Мультик фигня полная.

_________________
info [Профиль]  [ЛС] 

Ерш

Стаж: 7 лет 8 месяцев

Сообщений: 156

Рейтинг

post 20-Июл-2015 21:55 (спустя 4 дня) [-]0[+]

[Цитировать] 

по любому, автор сверху считает себя самым умным из здесь собравшихся. мульт неинтересный.
info [Профиль]  [ЛС] 

post 04-Окт-2015 13:09 (спустя 2 месяца 14 дней) [-]0[+]

Топик был перенесен из форума Новинки 2014-2015 (Rips) в форум Мультфильмы от R.G. TNСlub

L
 
Показать сообщения:    
Ответить на тему

Текущее время: 06-Дек 19:58

Часовой пояс: GMT + 4



Вы не можете начинать темы
Вы не можете отвечать на сообщения
Вы не можете редактировать свои сообщения
Вы не можете удалять свои сообщения
Вы не можете голосовать в опросах
Вы не можете прикреплять файлы к сообщениям
Вы не можете скачивать файлы