Ошибка

Серафим Конца Времён/ Owari no Seraph/ Seraph of the End [TV] [1-12 из 12] [2015] [приключения, мистика] [HDTVRip] [720p] [Субтитры (JAP)]

Ответить на тему
 
Автор Сообщение

anoningen

Стаж: 3 года 11 месяцев

Сообщений: 414

Самоа
Рейтинг

post 23-Июн-2015 21:50 1[+]

[Цитировать] 

Серафим Конца Времён
Последний Серафим |Owari no Seraph | Seraph of the End | 終わりのセラフ

Год выпуска:
2015 г.
Тип: TV
Жанр: приключения, мистика
Режиссер: Токудо Дайсукэ
Автор оригинала: Кагами Такая
Студия:
Продолжительность: 12 эп. по 25 мин
Русские субтитры: ASS, внешним файлом

Субтитры 1:
Перевод: Nesitach
Редактор/Тайм-код/Оформление: Stan WarHammer

Субтитры 2:
Переводчик: Angara [Sovet Romantica]

Описание: В стремлении к запретным знаниям «человек разумный» опять напортачил – в 2012 году на волю вырвался смертельный вирус, начавший косить человечество. Умирали почему-то взрослые, и тут, откуда ни возьмись, явились вампиры и согнали оставшихся детей в свой подземный город, объявив, что отныне «людишки» будут жить под защитой клыкастых хозяев, расплачиваясь кровью. Резкий парень Юйтиро пожил так 4 года и понял, что пора валить – вместе с названным братом Микой и всей «семьей Хьякуя», группой детей, выросшей в одном приюте. Конечно, вампиры легко догнали и перебили беглецов, ушел лишь один.
Выйдя на поверхность, юный Хьякуя понял, что эпидемия кончилась, но мир изменился – кругом разруха, бродят демоны, а кровососы потихоньку расширяют территорию, предлагая жителям «крышу». Власть в Японии захватила семья Хиираги, сформировавшая Имперскую Демоническую армию, которая защищает людей и бьет вампиров зачарованным оружием. Свой путь Юйтиро ясен – готовиться к службе, мстить за погибшую родню. Прямого и порывистого парня ждет немало сюрпризов и неожиданностей, но в таком поганом мире лучше надеяться на свой дар и свой меч, чем на волю судьбы и благосклонность правителей!


Автор рипа: Ohys-Raws
Качество: HDTVRip
Формат видео: MPEG-4
Видео: AVC, 8 bits, 1280x720; 23.976 fps; 1997 Kbps, (16:9)
Аудио: AAC, 48.0 KHz, Variable ~206-208 Kbps, 2 ch
General
Complete name : G:\Anime\Owari no Seraph\[Ohys-Raws] Owari no Seraph - 01 (MX 1280x720 x264 AAC).mp4
Format : MPEG-4
Format profile : Base Media
Codec ID : isom
File size : 379 MiB
Duration : 24mn 0s
Overall bit rate mode : Variable
Overall bit rate : 2 207 Kbps
Encoded date : UTC 2015-04-04 13:55:41
Tagged date : UTC 2015-04-04 13:55:41

Video
ID : 1
Format : AVC
Format/Info : Advanced Video Codec
Format profile : Main@L4.1
Format settings, CABAC : Yes
Format settings, ReFrames : 4 frames
Codec ID : avc1
Codec ID/Info : Advanced Video Coding
Duration : 23mn 59s
Bit rate : 1 997 Kbps
Maximum bit rate : 12.8 Mbps
Width : 1 280 pixels
Height : 720 pixels
Display aspect ratio : 16:9
Frame rate mode : Constant
Frame rate : 23.976 fps
Color space : YUV
Chroma subsampling : 4:2:0
Bit depth : 8 bits
Scan type : Progressive
Bits/(Pixel*Frame) : 0.090
Stream size : 343 MiB (90%)
Writing library : x264 core 146 r2538 121396c
Encoding settings : cabac=1 / ref=3 / deblock=1:0:0 / analyse=0x1:0x111 / me=hex / subme=7 / psy=1 / psy_rd=1.00:0.00 / mixed_ref=1 / me_range=16 / chroma_me=1 / trellis=1 / 8x8dct=0 / cqm=0 / deadzone=21,11 / fast_pskip=0 / chroma_qp_offset=-2 / threads=12 / lookahead_threads=2 / sliced_threads=0 / nr=0 / decimate=0 / interlaced=0 / bluray_compat=0 / constrained_intra=0 / bframes=3 / b_pyramid=2 / b_adapt=1 / b_bias=0 / direct=1 / weightb=1 / open_gop=0 / weightp=2 / keyint=240 / keyint_min=1 / scenecut=40 / intra_refresh=0 / rc_lookahead=40 / rc=crf / mbtree=1 / crf=20.0 / qcomp=0.60 / qpmin=10 / qpmax=26 / qpstep=8 / ip_ratio=1.40 / aq=1:1.00
Encoded date : UTC 2015-04-04 13:55:31
Tagged date : UTC 2015-04-04 13:55:42
Color range : Limited
Color primaries : BT.709
Transfer characteristics : BT.709
Matrix coefficients : BT.709

Audio
ID : 2
Format : AAC
Format/Info : Advanced Audio Codec
Format profile : LC
Codec ID : 40
Duration : 24mn 0s
Bit rate mode : Variable
Bit rate : 206 Kbps
Maximum bit rate : 258 Kbps
Channel(s) : 2 channels
Channel positions : Front: L R
Sampling rate : 48.0 KHz
Compression mode : Lossy
Stream size : 35.4 MiB (9%)
Language : Japanese
Encoded date : UTC 2015-04-04 13:44:18
Tagged date : UTC 2015-04-04 13:55:42
info [Профиль]  [ЛС] 

post 23-Июн-2015 23:39 (спустя 1 час 49 минут) [-]0[+]

Топик был перенесен из форума Анонсы в форум HD Rips

precentor frost
 

Inqq

Пол: Пол:Муж

Стаж: 7 лет 2 месяца

Сообщений: 209

Рейтинг

post 24-Июн-2015 00:46 (спустя 2 часа 56 минут) [-]0[+]

[Цитировать] 

И как оно?
info [Профиль]  [ЛС] 

anoningen

Стаж: 3 года 11 месяцев

Сообщений: 414

Самоа
Рейтинг

post 24-Июн-2015 00:50 (спустя 4 минуты) [-]0[+]

[Цитировать] 

ХЗ, сам ещё не смотрел.
info [Профиль]  [ЛС] 

jz828059

Пол: Пол:Муж

Стаж: 8 лет

Сообщений: 142

Рейтинг

post 24-Июн-2015 10:03 (спустя 9 часов) [-]0[+]

[Цитировать] 

На скринах полуголые школьницы, можно качать.
info [Профиль]  [ЛС] 

Умный Веник

Пол: Пол:Муж

Стаж: 7 лет 8 месяцев

Сообщений: 272

Украина
Рейтинг

post 24-Июн-2015 13:04 (спустя 3 часа) [-]0[+]

[Цитировать] 

jz828059 писал(а):

На скринах полуголые школьницы, можно качать.
На каких скринах ты их увидел?

_________________
Я устал от бессмысленной свободы...
info [Профиль]  [ЛС] 

netcom

Пол: Пол:Муж

Стаж: 7 лет 3 месяца

Сообщений: 9

Россия
Рейтинг

post 24-Июн-2015 16:06 (спустя 3 часа) [-]0[+]

[Цитировать] 

Я так понимаю на русский язык не озвучено??
info [Профиль]  [ЛС] 

Instylar

Пол: Пол:Муж

Стаж: 7 лет 1 месяц

Сообщений: 47

Россия
Рейтинг

post 24-Июн-2015 18:18 (спустя 2 часа 11 минут) [-]2[+]

[Цитировать] 

Умный Веник писал(а):

jz828059 писал(а):

На скринах полуголые школьницы, можно качать.
На каких скринах ты их увидел?
Возможно товарищу пригрезились эротично обнаженные плечики юной вампирки с 4го скрина???
info [Профиль]  [ЛС] 

anoningen

Стаж: 3 года 11 месяцев

Сообщений: 414

Самоа
Рейтинг

post 24-Июн-2015 19:49 (спустя 1 час 31 минута) [-]1[+]

[Цитировать] 

netcom писал(а):

Я так понимаю на русский язык не озвучено??
В этой раздаче озвучки нет, только сабы.
info [Профиль]  [ЛС] 

ZashikiWarashi

Пол: Пол:Муж

Стаж: 4 года 6 месяцев

Сообщений: 463

Предупреждений: 1

Россия
Рейтинг

post 24-Июн-2015 22:17 (спустя 2 часа 27 минут) [-]0[+]

[Цитировать] 

Вполне rодно
info [Профиль]  [ЛС] 

NIKE007

Пол: Пол:Муж

Стаж: 5 лет 8 месяцев

Сообщений: 70

Россия
Рейтинг

post 24-Июн-2015 22:46 (спустя 28 минут) [-]0[+]

[Цитировать] 

Да продолжения данного сериала будет в октябре
info [Профиль]  [ЛС] 

anoningen

Стаж: 3 года 11 месяцев

Сообщений: 414

Самоа
Рейтинг

post 28-Июн-2015 13:17 (спустя 3 дня) [-]0[+]

[Цитировать] 

Изменил название темы на более подходящее по смыслу и, таки, встречающееся в субтитрах.
info [Профиль]  [ЛС] 
Показать сообщения:    
Ответить на тему

Текущее время: 30-Апр 09:19

Часовой пояс: GMT + 4



Вы не можете начинать темы
Вы не можете отвечать на сообщения
Вы не можете редактировать свои сообщения
Вы не можете удалять свои сообщения
Вы не можете голосовать в опросах
Вы не можете прикреплять файлы к сообщениям
Вы не можете скачивать файлы