Ошибка

Рыцари Сидонии: война за девятую планету (ТВ-2)/ Knights of Sidonia / Sidonia no Kishi: Daikyuu Wakusei Seneki [TV] [12 из 12] [2015] [приключения, фантастика, меха] [HDTVRip] [720p] [Субтитры (JAP)]

Ответить на тему
 
Автор Сообщение

anoningen

Стаж: 3 года 6 месяцев

Сообщений: 326

Самоа
Рейтинг

post 13-Июн-2015 21:43 3[+]

[Цитировать] 

Рыцари Сидонии: война за девятую планету (второй сезон)
Sidonia no Kishi: Daikyuu Wakusei Seneki | Knights of Sidonia | シドニアの騎士 第九惑星戦役

Год выпуска:
2015 г.
Тип: TV
Жанр: Приключения, фантастика, меха
Режиссер: Сэсита Хироюки
Автор оригинала: Нихэй Цутому
Студия:
Продолжительность: 12 эп. по 25 мин
Русские субтитры: ASS, внешним файлом

Субтитры 1: (1-12)
Перевод: Nesitach
Редактор/Тайм-код/Оформление: Stan WarHammer

Субтитры 2: [YakuSub Studio] (1-11)
Переводчик: SeshaRim
Редактор: Little Devil
Перевод песен/Оформление: Nika_Elrik

Описание: В далеком будущем Земля была уничтожена космическими пришельцами Гауна. Ее жители бежали в космос, превратив осколки родной планеты в гигантские корабли, но сбить врага со следа не удалось. «Сидония» - один из кораблей-миров, что ищет новый дом, отбиваясь от Гауна, монстров-оборотней с каменной броней. Главная защита ковчега - боевые роботы-Стражи, обладающие оружием, способным уничтожить чужаков. Хотя люди за сотни лет полета всячески улучшали себя (например, освоив фотосинтез), достойных пилотов для Стражей мало, и командование не отбрасывает никого, даже весьма странных личностей.
Нагатэ вырос на заброшенных нижних уровнях, зная только своего деда Хироки. Единственной отрадой парня был старинный пилотский тренажер. Но вот дед умер, еда кончилась, житель подземелья подался на поиски и вскоре попал к военным, которые оценили его талант, развитый бесчисленными тренировками. Теперь Нагатэ – молодой пилот, настоящий рыцарь «Сидонии», а присматривать за «диким» приставили симпатичную курсантку Сидзуку. Пускай Гауна вокруг корабля давно не видели, они все равно где-то рядом. А вот тогда главный герой сполна отработает свой рис, ибо настоящему мужчине заниматься фотосинтезом не к лицу!


Автор рипа: Ohys-Raws
Качество: HDTVRip
Формат видео: MPEG-4
Видео: AVC, 8 bits, 1280x720; 23.976 fps; 1972 Kbps, (16:9)
Аудио: AAC, 48.0 KHz, Variable ~211 Kbps, 2 ch
G:\Anime\Sidonia no Kishi S2\[Ohys-Raws] Sidonia no Kishi Daikyuu Wakusei Seneki - 01 (BS-TBS 1280x720 x264 AAC).mp4
General
Complete name : G:\Anime\Sidonia no Kishi S2\[Ohys-Raws] Sidonia no Kishi Daikyuu Wakusei Seneki - 01 (BS-TBS 1280x720 x264 AAC).mp4
Format : MPEG-4
Format profile : Base Media
Codec ID : isom
File size : 382 MiB
Duration : 24mn 27s
Overall bit rate mode : Variable
Overall bit rate : 2 187 Kbps
Encoded date : UTC 2015-04-11 16:21:00
Tagged date : UTC 2015-04-11 16:21:00
Video #1
ID : 1
Format : AVC
Format/Info : Advanced Video Codec
Format profile : Main@L4.1
Format settings, CABAC : Yes
Format settings, ReFrames : 4 frames
Codec ID : avc1
Codec ID/Info : Advanced Video Coding
Duration : 24mn 26s
Bit rate : 1 972 Kbps
Maximum bit rate : 14.5 Mbps
Width : 1 280 pixels
Height : 720 pixels
Display aspect ratio : 16:9
Frame rate mode : Constant
Frame rate : 23.976 fps
Color space : YUV
Chroma subsampling : 4:2:0
Bit depth : 8 bits
Scan type : Progressive
Bits/(Pixel*Frame) : 0.089
Stream size : 345 MiB (90%)
Writing library : x264 core 146 r2538 121396c
Encoding settings : cabac=1 / ref=3 / deblock=1:0:0 / analyse=0x1:0x111 / me=hex / subme=7 / psy=1 / psy_rd=1.00:0.00 / mixed_ref=1 / me_range=16 / chroma_me=1 / trellis=1 / 8x8dct=0 / cqm=0 / deadzone=21,11 / fast_pskip=0 / chroma_qp_offset=-2 / threads=12 / lookahead_threads=2 / sliced_threads=0 / nr=0 / decimate=0 / interlaced=0 / bluray_compat=0 / constrained_intra=0 / bframes=3 / b_pyramid=2 / b_adapt=1 / b_bias=0 / direct=1 / weightb=1 / open_gop=0 / weightp=2 / keyint=240 / keyint_min=1 / scenecut=40 / intra_refresh=0 / rc_lookahead=40 / rc=crf / mbtree=1 / crf=20.0 / qcomp=0.60 / qpmin=10 / qpmax=26 / qpstep=8 / ip_ratio=1.40 / aq=1:1.00
Encoded date : UTC 2015-04-11 16:20:41
Tagged date : UTC 2015-04-11 16:21:00
Color primaries : BT.709-5, BT.1361, IEC 61966-2-4, SMPTE RP177
Transfer characteristics : BT.709-5, BT.1361
Matrix coefficients : BT.709-5, BT.1361, IEC 61966-2-4 709, SMPTE RP177
Audio #2
ID : 2
Format : AAC
Format/Info : Advanced Audio Codec
Format profile : LC
Codec ID : 40
Duration : 24mn 27s
Bit rate mode : Variable
Bit rate : 211 Kbps
Maximum bit rate : 265 Kbps
Channel(s) : 2 channels
Channel positions : Front: L R
Sampling rate : 48.0 KHz
Compression mode : Lossy
Delay relative to video : -3s 337ms
Stream size : 36.9 MiB (10%)
Language : Japanese
Encoded date : UTC 2015-04-11 15:44:30
Tagged date : UTC 2015-04-11 16:21:00
info [Профиль]  [ЛС] 
Показать сообщения:    
Ответить на тему

Текущее время: 08-Дек 22:14

Часовой пояс: GMT + 4



Вы не можете начинать темы
Вы не можете отвечать на сообщения
Вы не можете редактировать свои сообщения
Вы не можете удалять свои сообщения
Вы не можете голосовать в опросах
Вы не можете прикреплять файлы к сообщениям
Вы не можете скачивать файлы