Ошибка

Последние рыцари / Last Knights (Казуаки Кирия) [2014, Драма, боевик, приключения, BDRemux 1080i]

Ответить на тему
 
Автор Сообщение

karlmenni

Пол: Пол:Муж

Стаж: 1 год 11 месяцев

Сообщений: 1238

Россия
Рейтинг

post 05-Июн-2015 13:13 0[+]

[Цитировать] 

Последние рыцари / Last Knights





Год выпуска: 2014
Страна: Чехия, Корея Южная
Жанр: Драма, боевик, приключения
Продолжительность: 01:49:54
Перевод: Дублированный Лицензия
Субтитры:
Нет
В ролях: Клайв Оуэн, Морган Фриман, Клифф Кёртис, Аксель Хенни, Цуёси Ихара, Шоре Агдашлу, Пейман Моаади, Ан Сон Ги, Пак Си Ен, Дэниэл Адегбойега
Режиссёр: Казуаки Кирия
Фильм рассказывает о падшем воине, который восстает против коррумпированного правителя-садиста, чтобы отомстить за своего обесчещенного господина.
Качество: BDRemux 1080i
Формат: MKV
Видео кодек: AVC
Видео: AVC, 1920x1080 (16:9), 50.000 fps, 21.6 Mbps (0.208 bit/pixel)
Аудио 1: AC-3, 48.0 KHz, 6 ch, 640 Kbps, CBR (Russian)
Аудио 2: AC-3, 48.0 KHz, 6 ch, 640 Kbps, CBR (English)



Код:

Общее
Уникальный идентификатор                 : 240127744574937019284463992074559428361 (0xB4A6EBDF43D95F2989C3576510861709)
Полное имя                               : C:\MyFiles\FILM\Last_knights_2014_BDRemux1080i.mkv
Формат                                   : Matroska
Версия формата                           : Version 4 / Version 2
Размер файла                             : 17,9 Гбайт
Продолжительность                        : 1 ч. 49 м.
Режим общего битрейта                    : Переменный
Общий поток                              : 23,3 Мбит/сек
Название фильма                          : Last_knights_2014_BDRemux1080i
Дата кодирования                         : UTC 2015-06-05 08:35:01
Программа кодирования                    : mkvmerge v5.9.0 ('On The Loose') built on Dec 31 2012 17:36:59
Библиотека кодирования                   : libebml v1.3.0 + libmatroska v1.4.0

Видео
Идентификатор                            : 1
Формат                                   : AVC
Формат/Информация                        : Advanced Video Codec
Профиль формата                          : High@L4.1
Параметр CABAC формата                   : Да
Параметр ReFrames формата                : 4 кадра
Параметр GOP формата                     : M=3, N=25
Режим смешивания                         : Header stripping
Идентификатор кодека                     : V_MPEG4/ISO/AVC
Продолжительность                        : 1 ч. 49 м.
Вид битрейта                             : Переменный
Битрейт                                  : 21,6 Мбит/сек
Максимальный битрейт                     : 35,0 Мбит/сек
Ширина                                   : 1920 пикселей
Высота                                   : 1080 пикселей
Соотношение сторон                       : 16:9
Режим частоты кадров                     : Постоянный
Частота кадров                           : 25,000 кадров/сек
Стандарт вещания                         : PAL
Цветовое пространство                    : YUV
Субдискретизация насыщенности            : 4:2:0
Битовая глубина                          : 8 бит
Тип развёртки                            : Чересстрочная
Порядок развёртки                        : Верхнее поле первое
Бит/(Пиксели*Кадры)                      : 0.416
Размер потока                            : 16,6 Гбайт (93%)
Default                                  : Да
Forced                                   : Нет
Основные цвета                           : BT.709
Характеристики трансфера                 : BT.709
Коэффициенты матрицы                     : BT.709
colour_range                             : Limited

Аудио #1
Идентификатор                            : 2
Формат                                   : AC-3
Формат/Информация                        : Audio Coding 3
Расширение режима                        : CM (complete main)
Параметр Endianness формата              : Big
Режим смешивания                         : Header stripping
Идентификатор кодека                     : A_AC3
Продолжительность                        : 1 ч. 49 м.
Вид битрейта                             : Постоянный
Битрейт                                  : 640 Кбит/сек
Каналы                                   : 6 каналов
Расположение каналов                     : Front: L C R, Side: L R, LFE
Частота                                  : 48,0 КГц
Битовая глубина                          : 16 бит
Метод сжатия                             : С потерями
Размер потока                            : 503 Мбайт (3%)
Язык                                     : Russian
Default                                  : Да
Forced                                   : Нет

Аудио #2
Идентификатор                            : 3
Формат                                   : AC-3
Формат/Информация                        : Audio Coding 3
Расширение режима                        : CM (complete main)
Параметр Endianness формата              : Big
Режим смешивания                         : Header stripping
Идентификатор кодека                     : A_AC3
Продолжительность                        : 1 ч. 49 м.
Вид битрейта                             : Постоянный
Битрейт                                  : 640 Кбит/сек
Каналы                                   : 6 каналов
Расположение каналов                     : Front: L C R, Side: L R, LFE
Частота                                  : 48,0 КГц
Битовая глубина                          : 16 бит
Метод сжатия                             : С потерями
Размер потока                            : 503 Мбайт (3%)
Язык                                     : English
Default                                  : Нет
Forced                                   : Нет


info [Профиль]  [ЛС] 

SkyIse

Пол: Пол:Муж

Стаж: 6 лет 8 месяцев

Сообщений: 278

Япония
Рейтинг

post 05-Июн-2015 17:55 (спустя 4 часа) [-]0[+]

[Цитировать] 

за пятьсот лет до ордена 1886?

_________________
info [Профиль]  [ЛС] 

madmoney47

Пол: Пол:Муж

Стаж: 6 лет 1 месяц

Сообщений: 155

Федеративные Штаты Микронезии
Рейтинг

post 05-Июн-2015 18:25 (спустя 30 минут) [-]4[+]

[Цитировать] 

Откуда в средневековье негры? Да еще рыцари! Что за маразм?
info [Профиль]  [ЛС] 

Armorant

Пол: Пол:Муж

Стаж: 3 года 7 месяцев

Сообщений: 53

Россия
Рейтинг

post 05-Июн-2015 19:13 (спустя 47 минут) [-]5[+]

[Цитировать] 

Тогда были мавры, не негры Улыбаюсь

_________________
PS1x2, PS2x6, PSX DESR—5000/7100/5500/7500, PSP, PSV, DTL—10000H, PS3 CECHA00, CECHB12, CECHC08, CECHG08, CECHK08, 2508A, XBOX ORIGINAL, X360 DUAL NAND, WIIx2, WII U, 3DS.
info [Профиль]  [ЛС] 

d_freeman

Пол: Пол:Муж

Стаж: 3 года 9 месяцев

Сообщений: 69

Предупреждений: 3

Россия
Рейтинг

post 05-Июн-2015 19:51 (спустя 38 минут) [-]2[+]

[Цитировать] 

madmoney47 писал(а):

Откуда в средневековье негры? Да еще рыцари! Что за маразм?
историю учи. садись 2

_________________
info [Профиль]  [ЛС] 

hitman1990

Стаж: 7 лет 8 месяцев

Сообщений: 52

Рейтинг

post 05-Июн-2015 21:37 (спустя 1 час 45 минут) [-]0[+]

[Цитировать] 

d_freeman писал(а):

madmoney47 писал(а):

Откуда в средневековье негры? Да еще рыцари! Что за маразм?
историю учи. садись 2
хаха хотелось бы послушать ваше умозаключение, по этому поводу kolob_107
info [Профиль]  [ЛС] 

alienheart

Стаж: 6 лет 10 месяцев

Сообщений: 482

Предупреждений: 1

Канада
Рейтинг

post 05-Июн-2015 21:47 (спустя 9 минут) [-]0[+]

[Цитировать] 

мавры были... из южных народов. Хотя все равно смотрится натянуто.
info [Профиль]  [ЛС] 

reverz

Пол: Пол:Муж

Стаж: 5 лет 3 месяца

Сообщений: 318

СССР
Рейтинг

post 05-Июн-2015 21:51 (спустя 4 минуты) [-]0[+]

[Цитировать] 

японец никого не смутил, только негр?
info [Профиль]  [ЛС] 

alex86surgut

Пол: Пол:Муж

Стаж: 6 лет 2 месяца

Сообщений: 38

Россия
Рейтинг

post 05-Июн-2015 22:19 (спустя 27 минут) [-]0[+]

[Цитировать] 

да это не рыцари, а самураи какие то
info [Профиль]  [ЛС] 

Infected_raver

Пол: Пол:Муж

Стаж: 4 года 7 месяцев

Сообщений: 52

Украина
Рейтинг

post 06-Июн-2015 10:27 (спустя 12 часов) [-]0[+]

[Цитировать] 

Жесть тоже открыл и подумал что это по Ордену 1886)))))

_________________
info [Профиль]  [ЛС] 

Ян

Пол: Пол:Муж

Стаж: 5 лет 2 месяца

Сообщений: 330

Россия
Рейтинг

post 06-Июн-2015 10:33 (спустя 5 минут) [-]0[+]

[Цитировать] 

Качаю. Спасибо раздающему. тема негра я полагаю раскрыта.=)

_________________
info [Профиль]  [ЛС] 

Bonart

Пол: Пол:Муж

Стаж: 6 лет 7 месяцев

Сообщений: 205

Южная Георгия и Южные Сандвичевы острова
Рейтинг

post 06-Июн-2015 13:03 (спустя 2 часа 30 минут) [-]0[+]

[Цитировать] 

Рейтинг невысокий, но трейлер прикольный....


_________________
info [Профиль]  [ЛС] 

Noslla

Стаж: 2 года 1 месяц

Сообщений: 7

Рейтинг

post 07-Июн-2015 02:30 (спустя 13 часов) [-]0[+]

[Цитировать] 

Фильм супер! Честь и отвага,господа!
info [Профиль]  [ЛС] 

iRandom

Пол: Пол:Муж

Стаж: 5 лет 5 месяцев

Сообщений: 349

Россия
Рейтинг

post 07-Июн-2015 02:35 (спустя 4 минуты) [-]0[+]

[Цитировать] 

В принципе, Клайву даются роли в исторических фильмах, вспомнить, хотя бы, Короля Артура Улыбаюсь
info [Профиль]  [ЛС] 

Sakuradan

Пол: Пол:Муж

Стаж: 6 лет 10 месяцев

Сообщений: 364

Россия
Рейтинг

post 07-Июн-2015 16:47 (спустя 14 часов) [-]0[+]

[Цитировать] 

madmoney47 писал(а):

Откуда в средневековье негры?
Никто уже не помнит "Робин Гуд: принц воров" kolob_122
С тем же самым Морганом Фрименом, кстати.
info [Профиль]  [ЛС] 

post 20-Дек-2015 20:38 (спустя 6 месяцев 13 дней) [-]0[+]

Топик был перенесен из форума Новинки 2014-2015 (Web-DL, DVD, HD DVD, Blu-ray, HD Rips) в форум Зарубежное кино | HD DVD и Blu-ray

BZzz
 
Показать сообщения:    
Ответить на тему

Текущее время: 11-Дек 02:30

Часовой пояс: GMT + 4



Вы не можете начинать темы
Вы не можете отвечать на сообщения
Вы не можете редактировать свои сообщения
Вы не можете удалять свои сообщения
Вы не можете голосовать в опросах
Вы не можете прикреплять файлы к сообщениям
Вы не можете скачивать файлы