Ошибка

Шрек: Квадрология / Shrek: Quadrilogy (Эндрю Адамсон / Andrew Adamson, Вики Дженсон / Vicky Jenson, Келли Эсбёри / Kelly Asbury, Конрад Вернон / Conrad Vernon, Крис Миллер / Chris Miller) [2001, 2004, 2007, 2010 мультипликация, BDRemux 1080p]

Ответить на тему
 
Автор Сообщение

Eвгений

Пол: Пол:Муж

Стаж: 6 лет 9 месяцев

Сообщений: 680

Россия
Рейтинг

post 31-Май-2015 22:58 0[+]

[Цитировать] 


Шрек / Shrek

Страна: США
Жанр: комедия, приключения, семейный, мультфильм
Продолжительность: 01:30:04
Год выпуска: 2001
Перевод: Профессиональный (дублированный)
Перевод (2): Профессиональный (многоголосый закадровый)
Перевод (3): Профессиональный (одноголосый закадровый)
Субтитры: English (Blu-ray CEE), Russian (Blu-ray CEE), Russian (SHD) (Kinomania), Ukrainian (Blu-ray CEE)
Режиссёр: Эндрю Адамсон / Andrew Adamson, Вики Дженсон / Vicky Jenson
Роли озвучивали: Майк Майерс, Эдди Мёрфи, Кэмерон Диаз, Джон Литгоу, Венсан Кассель, Питер Дэннис, Клив Пирс, Джим Каммингс, Бобби Блок, Крис Миллер
Описание: Жил да был в сказочном государстве большой зеленый великан по имени Шрек. Жил он в гордом одиночестве в лесу, на болоте, которое считал своим. Но однажды злобный коротышка - лорд Фаркуад, правитель волшебного королевства, безжалостно согнал на Шреково болото всех сказочных обитателей.
И беспечной жизни зеленого тролля пришел конец. Но лорд Фаркуад пообещал вернуть Шреку болото, если великан добудет ему прекрасную принцессу Фиону, которая томится в неприступной башне, охраняемой огнедышащим драконом...
Потрясающий мультфильм занял свое заслуженное место в пятерке самых кассовых мультфильмов всех времен.
Дополнительная информация: Внимание! Первая, вторая и третья части превышают максимальный битрейт для Blu-ray в 48мб/с. Не записывайте их на Blu-ray диски! Они не будут проигрываться на бытовых Blu-ray плеерах!
Релиз от:
Качество: BDRemux 1080p
Формат: BDAV
Видео кодек: MPEG-4 AVC
Аудио кодек: AC3, DTS, DTS-HD MA
Видео: 1920x1080 at 23.976 fps, MPEG-4 AVC, ~32970 kbps avg
Аудио: Russian: 48 kHz, AC3, 3/2 (L,C,R,l,r) + LFE ch, ~640.00 kbps avg |Дубляж, Blu-ray CEE|
Аудио 2: Russian: 48 kHz, DTS, 3/2 (L,C,R,l,r) + LFE ch, ~768.00 kbps avg |Многоголосый закадровый, Superbit|
Аудио 3: Russian: 48 kHz/24-bit, DTS-HD MA 7.1, ~4346.00 kbps avg (DTS Core: 5.1 / 48 kHz / 1509 kbps / 24-bit) |Многоголосый закадровый, Карусель|
Аудио 4: Russian: 48 kHz/24-bit, DTS-HD MA 7.1, ~4345.00 kbps avg (DTS Core: 5.1 / 48 kHz / 1509 kbps / 24-bit) |Многоголосый закадровый, Киномания/Карусель #2|
Аудио 5: Russian: 48 kHz/24-bit, DTS-HD MA 7.1, ~4320.00 kbps avg (DTS Core: 5.1 / 48 kHz / 1509 kbps / 24-bit) |Одноголосый закадровый, Дмитрий "Гоблин" Пучков|
Аудио 6: Russian: 48 kHz/24-bit, DTS-HD MA 7.1, ~4516.00 kbps avg (DTS Core: 5.1 / 48 kHz / 1509 kbps / 24-bit) |Одноголосый закадровый, П. Гланц|
Аудио 7: Russian: 48 kHz/24-bit, DTS-HD MA 7.1, ~4333.00 kbps avg (DTS Core: 5.1 / 48 kHz / 1509 kbps / 24-bit) |Одноголосый закадровый, А. Гаврилов|
Аудио 8: Russian: 48 kHz/24-bit, DTS-HD MA 7.1, ~4317.00 kbps avg (DTS Core: 5.1 / 48 kHz / 1509 kbps / 24-bit) |Одноголосый закадровый, С. Визгунов|
Аудио 9: English: 48 kHz/24-bit, DTS-HD MA 7.1, ~4289.00 kbps avg (DTS Core: 5.1 / 48 kHz / 1509 kbps / 24-bit)
Аудио 10: Ukrainian: 48 kHz, AC3, 2/0 (L,R) ch, ~320.00 kbps avg |Дубляж, ICTV|
Аудио 11: Ukrainian: 48 kHz, AC3, 2/0 (L,R) ch, ~192.00 kbps avg |Многоголосый закадровый, Новый Канал|
Аудио 12: Russian: 48 kHz, AC3, 2/0 (L,R) ch, ~192.00 kbps avg |Одноголосый закадровый, Комментарии создателей - режиссера Эндрю Адамсона и Вики Дженсон, а также продюсера Арона Уорнера, перевод Superbit|
Аудио 13: English: 48 kHz, AC3, 2/0 (L,R) ch, ~192.00 kbps avg |Commentary by director's Andrew Adamson, Vicky Jenson and producer Aron Warner|

Код:

Total   Video
Title                                                           Codec   Length  Movie Size      Disc Size       Bitrate Bitrate Main Audio Track                          Secondary Audio Track
-----                                                           ------  ------- --------------  --------------  ------- ------- ------------------                        ---------------------
00000.MPLS                                                      AVC     1:30:08 47 823 224 832  47 823 316 488  70,74   32,97   DTS-HD Master 7.1 4285Kbps (48kHz/24-bit)

Код:

DISC INFO:
Disc Title:
Disc Size:      47 823 316 488 bytes
Protection:     AACS
BD-Java:        No
BDInfo:         0.5.3
PLAYLIST REPORT:
Name:                   00000.MPLS
Length:                 1:30:08 (h:m:s)
Size:                   47 823 224 832 bytes
Total Bitrate:          70,74 Mbps
VIDEO:
Codec                   Bitrate             Description
-----                   -------             -----------
MPEG-4 AVC Video        32970 kbps          1080p / 23,976 fps / 16:9 / High Profile 4.1
AUDIO:
Codec                           Language        Bitrate         Description
-----                           --------        -------         -----------
DTS-HD Master Audio             English         4285 kbps       7.1 / 48 kHz / 4285 kbps / 24-bit (DTS Core: 5.1 / 48 kHz / 1509 kbps / 24-bit)
DTS-HD Master Audio             Russian         4341 kbps       7.1 / 48 kHz / 4341 kbps / 24-bit (DTS Core: 5.1 / 48 kHz / 1509 kbps / 24-bit)
DTS-HD Master Audio             Russian         4342 kbps       7.1 / 48 kHz / 4342 kbps / 24-bit (DTS Core: 5.1 / 48 kHz / 1509 kbps / 24-bit)
DTS-HD Master Audio             Russian         4316 kbps       7.1 / 48 kHz / 4316 kbps / 24-bit (DTS Core: 5.1 / 48 kHz / 1509 kbps / 24-bit)
DTS-HD Master Audio             Russian         4512 kbps       7.1 / 48 kHz / 4512 kbps / 24-bit (DTS Core: 5.1 / 48 kHz / 1509 kbps / 24-bit)
DTS-HD Master Audio             Russian         4324 kbps       7.1 / 48 kHz / 4324 kbps / 24-bit (DTS Core: 5.1 / 48 kHz / 1509 kbps / 24-bit)
DTS-HD Master Audio             Russian         4314 kbps       7.1 / 48 kHz / 4314 kbps / 24-bit (DTS Core: 5.1 / 48 kHz / 1509 kbps / 24-bit)
DTS Audio                       Russian         768 kbps        5.1 / 48 kHz / 768 kbps / 24-bit
Dolby Digital Audio             Russian         640 kbps        5.1 / 48 kHz / 640 kbps / DN -4dB
Dolby Digital Audio             English         192 kbps        2.0 / 48 kHz / 192 kbps
Dolby Digital Audio             Russian         192 kbps        2.0 / 48 kHz / 192 kbps
Dolby Digital Audio             Ukrainian       320 kbps        2.0 / 48 kHz / 320 kbps
Dolby Digital Audio             Ukrainian       192 kbps        2.0 / 48 kHz / 192 kbps
SUBTITLES:
Codec                           Language        Bitrate         Description
-----                           --------        -------         -----------
Presentation Graphics           English         37,684 kbps
Presentation Graphics           Russian         30,194 kbps
Presentation Graphics           Russian         37,720 kbps
Presentation Graphics           Ukrainian       35,859 kbps
FILES:
Name            Time In         Length          Size            Total Bitrate
----            -------         ------          ----            -------------
00000.M2TS      0:00:00.000     1:30:08.416     47 823 224 832  70 739
CHAPTERS:
Number          Time In         Length          Avg Video Rate  Max 1-Sec Rate  Max 1-Sec Time  Max 5-Sec Rate  Max 5-Sec Time  Max 10Sec Rate  Max 10Sec Time  Avg Frame Size  Max Frame Size  Max Frame Time
------          -------         ------          --------------  --------------  --------------  --------------  --------------  --------------  --------------  --------------  --------------  --------------
1               0:00:00.000     0:04:58.798     32 838 kbps     54 539 kbps     00:00:23.273    38 769 kbps     00:00:19.269    36 615 kbps     00:00:14.264    171 177 bytes   640 875 bytes   00:04:58.006
2               0:04:58.798     0:06:46.323     34 486 kbps     41 310 kbps     00:06:40.733    36 135 kbps     00:06:36.729    35 304 kbps     00:06:31.766    179 793 bytes   641 073 bytes   00:05:30.747
3               0:11:45.121     0:04:15.671     34 504 kbps     38 447 kbps     00:13:33.229    35 564 kbps     00:11:51.627    35 183 kbps     00:11:46.622    179 886 bytes   636 935 bytes   00:11:57.550
4               0:16:00.792     0:04:12.585     33 365 kbps     39 786 kbps     00:19:40.596    35 519 kbps     00:16:31.865    35 163 kbps     00:16:26.985    173 947 bytes   641 065 bytes   00:17:35.429
5               0:20:13.378     0:06:08.076     33 811 kbps     39 949 kbps     00:22:42.194    35 934 kbps     00:22:38.190    35 198 kbps     00:25:12.552    176 273 bytes   641 042 bytes   00:21:36.878
6               0:26:21.454     0:05:21.404     34 337 kbps     38 647 kbps     00:26:57.198    35 579 kbps     00:27:08.460    35 130 kbps     00:29:07.662    179 018 bytes   641 018 bytes   00:27:34.361
7               0:31:42.859     0:03:32.420     33 794 kbps     37 389 kbps     00:32:23.941    35 318 kbps     00:33:06.693    34 993 kbps     00:32:02.629    176 187 bytes   640 574 bytes   00:32:27.612
8               0:35:15.279     0:05:10.726     34 030 kbps     39 087 kbps     00:38:49.869    35 534 kbps     00:38:45.906    35 150 kbps     00:38:40.860    177 418 bytes   640 824 bytes   00:36:31.522
9               0:40:26.006     0:04:37.152     34 406 kbps     38 446 kbps     00:44:15.652    35 490 kbps     00:44:07.311    35 142 kbps     00:44:00.596    179 378 bytes   640 662 bytes   00:40:45.484
10              0:45:03.158     0:04:15.088     33 445 kbps     38 452 kbps     00:45:10.958    35 539 kbps     00:46:40.964    35 138 kbps     00:48:52.137    174 369 bytes   640 154 bytes   00:45:13.669
11              0:49:18.246     0:06:11.454     34 141 kbps     40 579 kbps     00:52:40.699    35 547 kbps     00:52:36.611    35 264 kbps     00:52:31.690    177 998 bytes   640 455 bytes   00:50:12.718
12              0:55:29.701     0:05:26.576     33 759 kbps     39 591 kbps     00:57:46.671    35 533 kbps     00:56:38.937    35 176 kbps     00:56:38.937    176 004 bytes   641 061 bytes   00:57:12.178
13              1:00:56.277     0:04:39.070     33 661 kbps     37 519 kbps     01:02:07.515    35 310 kbps     01:03:37.688    35 066 kbps     01:03:32.683    175 491 bytes   639 243 bytes   01:04:04.423
14              1:05:35.348     0:03:41.637     34 479 kbps     38 728 kbps     01:06:59.265    35 587 kbps     01:09:01.762    35 137 kbps     01:08:30.105    179 757 bytes   640 848 bytes   01:07:56.238
15              1:09:16.986     0:02:17.721     34 275 kbps     38 987 kbps     01:11:00.673    35 617 kbps     01:10:59.797    35 189 kbps     01:10:55.751    178 692 bytes   641 030 bytes   01:11:07.763
16              1:11:34.707     0:03:18.739     34 474 kbps     38 468 kbps     01:11:36.458    35 509 kbps     01:11:49.805    35 147 kbps     01:12:55.537    179 730 bytes   641 029 bytes   01:13:05.547
17              1:14:53.447     0:02:42.369     33 186 kbps     37 884 kbps     01:17:15.922    35 397 kbps     01:15:07.586    34 977 kbps     01:15:02.581    173 017 bytes   640 589 bytes   01:16:05.269
18              1:17:35.817     0:03:19.323     34 136 kbps     39 504 kbps     01:18:20.445    35 452 kbps     01:20:13.308    35 165 kbps     01:20:08.345    177 968 bytes   596 386 bytes   01:18:22.823
19              1:20:55.140     0:02:09.213     33 137 kbps     38 120 kbps     01:21:24.754    35 530 kbps     01:21:36.850    35 154 kbps     01:21:32.012    172 764 bytes   639 996 bytes   01:21:24.796
20              1:23:04.354     0:07:04.061     21 590 kbps     37 443 kbps     01:29:59.811    34 779 kbps     01:29:27.361    34 634 kbps     01:29:22.857    112 564 bytes   628 544 bytes   01:30:02.563
STREAM DIAGNOSTICS:
File            PID             Type            Codec           Language                Seconds                 Bitrate                 Bytes           Packets
----            ---             ----            -----           --------                --------------          --------------          -------------   -----
00000.M2TS      4113 (0x1011)   0x1B            AVC                                     5408,278                32 971                  22 289 737 549  121 215 406
00000.M2TS      4352 (0x1100)   0x81            AC3             rus (Russian)           5408,278                640                     432 675 840     2 535 210
00000.M2TS      4353 (0x1101)   0x82            DTS             rus (Russian)           5408,278                768                     519 023 616     3 041 154
00000.M2TS      4354 (0x1102)   0x86            DTS-HD MA       rus (Russian)           5408,278                4 341                   2 934 929 548   16 793 516
00000.M2TS      4355 (0x1103)   0x86            DTS-HD MA       rus (Russian)           5408,278                4 342                   2 935 446 900   16 796 532
00000.M2TS      4356 (0x1104)   0x86            DTS-HD MA       rus (Russian)           5408,278                4 316                   2 917 971 652   16 700 271
00000.M2TS      4357 (0x1105)   0x86            DTS-HD MA       rus (Russian)           5408,278                4 512                   3 050 594 740   17 421 900
00000.M2TS      4358 (0x1106)   0x86            DTS-HD MA       rus (Russian)           5408,278                4 324                   2 922 932 448   16 727 602
00000.M2TS      4359 (0x1107)   0x86            DTS-HD MA       rus (Russian)           5408,278                4 314                   2 916 209 608   16 691 287
00000.M2TS      4360 (0x1108)   0x86            DTS-HD MA       eng (English)           5408,278                4 286                   2 897 229 548   16 588 702
00000.M2TS      4361 (0x1109)   0x81            AC3             ukr (Ukrainian)         5408,278                320                     216 250 880     1 351 568
00000.M2TS      4362 (0x110A)   0x81            AC3             ukr (Ukrainian)         5408,278                192                     129 752 832     844 745
00000.M2TS      4363 (0x110B)   0x81            AC3             rus (Russian)           5408,278                192                     129 751 296     844 735
00000.M2TS      4364 (0x110C)   0x81            AC3             eng (English)           5408,278                192                     129 751 296     844 735
00000.M2TS      4608 (0x1200)   0x90            PGS             eng (English)           5408,278                38                      25 476 656      145 505
00000.M2TS      4609 (0x1201)   0x90            PGS             rus (Russian)           5408,278                30                      20 412 830      116 491
00000.M2TS      4610 (0x1202)   0x90            PGS             rus (Russian)           5408,278                38                      25 500 823      148 119
00000.M2TS      4611 (0x1203)   0x90            PGS             ukr (Ukrainian)         5408,278                36                      24 242 537      139 043

Шрек 2 / Shrek 2

Страна: США
Жанр: комедия, приключения, семейный, мультфильм
Продолжительность: 01:32:23
Год выпуска: 2004
Перевод: Профессиональный (дублированный)
Перевод (2): Профессиональный (многоголосый закадровый)
Перевод (3): Профессиональный (двухголосый закадровый)
Перевод (4): Профессиональный (одноголосый закадровый)
Субтитры: English (Blu-ray CEE), Russian (Blu-ray CEE), Ukrainian (Blu-ray CEE)
Режиссёр: Эндрю Адамсон / Andrew Adamson, Келли Эсбёри / Kelly Asbury, Конрад Вернон / Conrad Vernon
Роли озвучивали: Майк Майерс, Эдди Мерфи, Кэмерон Диаз, Джули Энрюс, Антонио Бандерас, Джон Клиз, Руперт Эверетт, Джэнифер Сэндэрс
Описание: Шрэк и Фиона возвращаются после медового месяца и находят письмо от родителей Фионы с приглашением на ужин. Однако те не подозревают, что их дочь тоже стала троллем! Вместе с Осликом счастливая пара отправляется в путешествие, полное неожиданностей, и попадает в круговорот событий, во время которых приобретает множество друзей...
Дополнительная информация: Внимание! Первая, вторая и третья части превышают максимальный битрейт для Blu-ray в 48мб/с. Не записывайте их на Blu-ray диски! Они не будут проигрываться на бытовых Blu-ray плеерах!
Релиз от:
Качество: BDRemux 1080p
Формат: BDAV
Видео кодек: MPEG-4 AVC
Аудио кодек: AC3, DTS-HD MA
Видео: 1920x1080 at 23.976 fps, MPEG-4 AVC, ~30888 kbps avg
Аудио: Russian: 48 kHz, AC3, 3/2 (L,C,R,l,r) + LFE ch, ~640.00 kbps avg |Дубляж, Blu-ray CEE|
Аудио 2: Russian: 48 kHz/24-bit, DTS-HD MA 7.1, ~4050.00 kbps avg (DTS Core: 5.1 / 48 kHz / 1509 kbps / 24-bit) |Одноголосый закадровый, Дмитрий "Гоблин" Пучков, финальная версия|
Аудио 3: Russian: 48 kHz/24-bit, DTS-HD MA 7.1, ~4064.00 kbps avg (DTS Core: 5.1 / 48 kHz / 1509 kbps / 24-bit) |Двухголосый закадровый, Tycoon studio|
Аудио 4: Russian: 48 kHz/24-bit, DTS-HD MA 7.1, ~4069.00 kbps avg (DTS Core: 5.1 / 48 kHz / 1509 kbps / 24-bit) |Двухголосый закадровый, П. Гланц, И. Королёва|
Аудио 5: Russian: 48 kHz/24-bit, DTS-HD MA 7.1, ~4067.00 kbps avg (DTS Core: 5.1 / 48 kHz / 1509 kbps / 24-bit) |Одноголосый закадровый, А. Гаврилов|
Аудио 6: English: 48 kHz/24-bit, DTS-HD MA 7.1, ~4037.00 kbps avg (DTS Core: 5.1 / 48 kHz / 1509 kbps / 24-bit)
Аудио 7: Russian: 48 kHz, AC3, 3/2 (L,C,R,l,r) + LFE ch, ~448.00 kbps avg |Многоголосый закадровый, Киномания|
Аудио 8: Russian: 48 kHz, AC3, 3/2 (L,C,R,l,r) + LFE ch, ~448.00 kbps avg |Одноголосый закадровый, Дмитрий "Гоблин" Пучков, кот говорит с грузинским акцентом|
Аудио 9: Russian: 48 kHz, AC3, 3/2 (L,C,R,l,r) + LFE ch, ~448.00 kbps avg |Одноголосый закадровый, Дмитрий "Гоблин" Пучков, вставки эстрадных песен|
Аудио 10: Ukrainian: 48 kHz, AC3, 2/0 (L,R) ch, ~192.00 kbps avg |Многоголосый закадровый, Новый Канал|
Аудио 11: English: 48 kHz, AC3, 2/0 (L,R) ch, ~192.00 kbps avg |Commentary by director's Andrew Adamson, Kelly Asbury and Conrad Vernon|
Аудио 12: English: 48 kHz, AC3, 2/0 (L,R) ch, ~192.00 kbps avg |Commentary by editor Michael Andrews and producer Aron Warner|

Код:

Total   Video
Title                                                           Codec   Length  Movie Size      Disc Size       Bitrate Bitrate Main Audio Track                          Secondary Audio Track
-----                                                           ------  ------- --------------  --------------  ------- ------- ------------------                        ---------------------
00000.MPLS                                                      AVC     1:32:24 39 968 317 440  39 968 406 788  57,67   30,89   DTS-HD Master 7.1 4036Kbps (48kHz/24-bit)

Код:

DISC INFO:
Disc Title:
Disc Size:      39 968 406 788 bytes
Protection:     AACS
BD-Java:        No
BDInfo:         0.5.3
PLAYLIST REPORT:
Name:                   00000.MPLS
Length:                 1:32:24 (h:m:s)
Size:                   39 968 317 440 bytes
Total Bitrate:          57,67 Mbps
VIDEO:
Codec                   Bitrate             Description
-----                   -------             -----------
MPEG-4 AVC Video        30888 kbps          1080p / 23,976 fps / 16:9 / High Profile 4.1
AUDIO:
Codec                           Language        Bitrate         Description
-----                           --------        -------         -----------
DTS-HD Master Audio             English         4036 kbps       7.1 / 48 kHz / 4036 kbps / 24-bit (DTS Core: 5.1 / 48 kHz / 1509 kbps / 24-bit)
DTS-HD Master Audio             Russian         4049 kbps       7.1 / 48 kHz / 4049 kbps / 24-bit (DTS Core: 5.1 / 48 kHz / 1509 kbps / 24-bit)
DTS-HD Master Audio             Russian         4063 kbps       7.1 / 48 kHz / 4063 kbps / 24-bit (DTS Core: 5.1 / 48 kHz / 1509 kbps / 24-bit)
DTS-HD Master Audio             Russian         4068 kbps       7.1 / 48 kHz / 4068 kbps / 24-bit (DTS Core: 5.1 / 48 kHz / 1509 kbps / 24-bit)
DTS-HD Master Audio             Russian         4066 kbps       7.1 / 48 kHz / 4066 kbps / 24-bit (DTS Core: 5.1 / 48 kHz / 1509 kbps / 24-bit)
Dolby Digital Audio             Russian         640 kbps        5.1 / 48 kHz / 640 kbps / DN -4dB
Dolby Digital Audio             Russian         448 kbps        5.1 / 48 kHz / 448 kbps
Dolby Digital Audio             Russian         448 kbps        5.1 / 48 kHz / 448 kbps
Dolby Digital Audio             Russian         448 kbps        5.1 / 48 kHz / 448 kbps
Dolby Digital Audio             English         192 kbps        2.0 / 48 kHz / 192 kbps
Dolby Digital Audio             English         192 kbps        2.0 / 48 kHz / 192 kbps
Dolby Digital Audio             Ukrainian       192 kbps        2.0 / 48 kHz / 192 kbps
SUBTITLES:
Codec                           Language        Bitrate         Description
-----                           --------        -------         -----------
Presentation Graphics           English         45,262 kbps
Presentation Graphics           Russian         47,758 kbps
Presentation Graphics           Ukrainian       44,803 kbps
FILES:
Name            Time In         Length          Size            Total Bitrate
----            -------         ------          ----            -------------
00000.M2TS      0:00:00.000     1:32:24.352     39 968 317 440  57 681
CHAPTERS:
Number          Time In         Length          Avg Video Rate  Max 1-Sec Rate  Max 1-Sec Time  Max 5-Sec Rate  Max 5-Sec Time  Max 10Sec Rate  Max 10Sec Time  Avg Frame Size  Max Frame Size  Max Frame Time
------          -------         ------          --------------  --------------  --------------  --------------  --------------  --------------  --------------  --------------  --------------  --------------
1               0:00:00.000     0:02:32.778     28 476 kbps     38 150 kbps     00:02:18.721    36 067 kbps     00:01:15.283    35 882 kbps     00:01:07.400    148 378 bytes   637 151 bytes   00:01:21.081
2               0:02:32.778     0:06:09.202     31 870 kbps     39 625 kbps     00:05:03.511    36 321 kbps     00:06:58.418    35 868 kbps     00:08:32.011    166 154 bytes   640 297 bytes   00:03:17.405
3               0:08:41.980     0:02:27.521     34 010 kbps     39 147 kbps     00:09:41.664    36 281 kbps     00:09:37.535    35 924 kbps     00:09:12.051    177 362 bytes   640 878 bytes   00:09:14.262
4               0:11:09.501     0:07:44.923     29 632 kbps     39 257 kbps     00:13:18.631    36 457 kbps     00:13:47.701    36 099 kbps     00:14:10.224    154 476 bytes   640 811 bytes   00:13:27.848
5               0:18:54.425     0:08:19.082     28 791 kbps     40 078 kbps     00:21:09.226    36 087 kbps     00:20:45.786    35 908 kbps     00:20:43.533    150 104 bytes   599 286 bytes   00:24:17.122
6               0:27:13.507     0:03:10.105     30 705 kbps     38 314 kbps     00:27:58.760    36 075 kbps     00:29:01.573    35 950 kbps     00:28:56.568    160 118 bytes   453 337 bytes   00:29:59.839
7               0:30:23.613     0:02:14.885     27 569 kbps     37 648 kbps     00:31:05.822    36 175 kbps     00:31:01.818    35 997 kbps     00:31:11.077    143 735 bytes   461 430 bytes   00:30:46.177
8               0:32:38.498     0:08:07.779     34 286 kbps     39 688 kbps     00:40:23.921    36 362 kbps     00:40:13.160    36 115 kbps     00:33:27.672    178 750 bytes   641 053 bytes   00:34:32.195
9               0:40:46.277     0:07:21.565     30 229 kbps     38 444 kbps     00:42:52.403    36 077 kbps     00:43:53.839    35 537 kbps     00:41:53.010    157 600 bytes   637 502 bytes   00:43:01.787
10              0:48:07.843     0:04:22.763     32 617 kbps     39 006 kbps     00:49:52.614    36 414 kbps     00:48:47.591    36 061 kbps     00:49:49.486    170 023 bytes   637 111 bytes   00:49:53.573
11              0:52:30.606     0:03:51.814     31 346 kbps     44 107 kbps     00:52:59.134    37 234 kbps     00:52:55.171    35 827 kbps     00:55:49.012    163 423 bytes   640 127 bytes   00:54:32.185
12              0:56:22.421     0:04:22.887     30 910 kbps     40 733 kbps     00:56:54.327    36 336 kbps     00:56:55.203    35 985 kbps     00:59:37.782    161 175 bytes   638 843 bytes   00:56:55.245
13              1:00:45.308     0:02:52.422     31 175 kbps     38 639 kbps     01:02:36.127    36 073 kbps     01:02:58.149    35 855 kbps     01:03:15.249    162 495 bytes   638 517 bytes   01:03:36.646
14              1:03:37.731     0:01:21.247     32 653 kbps     45 008 kbps     01:04:35.830    36 255 kbps     01:03:44.529    36 021 kbps     01:03:46.531    170 325 bytes   597 820 bytes   01:04:36.414
15              1:04:58.978     0:02:24.519     30 953 kbps     42 353 kbps     01:05:47.693    36 753 kbps     01:05:09.947    35 962 kbps     01:06:19.892    161 330 bytes   599 724 bytes   01:05:49.070
16              1:07:23.497     0:03:27.248     30 047 kbps     40 734 kbps     01:09:55.524    36 276 kbps     01:07:33.382    35 998 kbps     01:07:30.963    156 683 bytes   547 330 bytes   01:07:45.227
17              1:10:50.746     0:03:29.626     30 971 kbps     37 564 kbps     01:11:06.095    36 117 kbps     01:12:13.412    35 969 kbps     01:12:08.407    161 436 bytes   581 543 bytes   01:11:28.867
18              1:14:20.372     0:04:21.886     30 861 kbps     38 040 kbps     01:14:46.815    35 947 kbps     01:16:49.771    35 486 kbps     01:15:22.684    160 919 bytes   586 685 bytes   01:18:42.259
19              1:18:42.259     0:03:26.914     32 380 kbps     37 754 kbps     01:19:21.423    36 277 kbps     01:20:11.640    35 995 kbps     01:20:06.927    168 812 bytes   636 513 bytes   01:18:43.176
20              1:22:09.174     0:10:15.177     29 826 kbps     42 310 kbps     01:22:09.382    36 357 kbps     01:24:32.192    36 019 kbps     01:24:34.652    155 770 bytes   631 911 bytes   01:22:11.176
STREAM DIAGNOSTICS:
File            PID             Type            Codec           Language                Seconds                 Bitrate                 Bytes           Packets
----            ---             ----            -----           --------                --------------          --------------          -------------   -----
00000.M2TS      4113 (0x1011)   0x1B            AVC                                     5543,163                30 889                  21 402 758 527  116 396 833
00000.M2TS      4352 (0x1100)   0x81            AC3             rus (Russian)           5543,163                640                     443 468 800     2 598 450
00000.M2TS      4353 (0x1101)   0x86            DTS-HD MA       rus (Russian)           5543,163                4 049                   2 805 622 152   16 112 366
00000.M2TS      4354 (0x1102)   0x86            DTS-HD MA       rus (Russian)           5543,163                4 063                   2 815 537 480   16 165 792
00000.M2TS      4355 (0x1103)   0x86            DTS-HD MA       rus (Russian)           5543,163                4 068                   2 818 934 304   16 184 693
00000.M2TS      4356 (0x1104)   0x86            DTS-HD MA       rus (Russian)           5543,163                4 066                   2 817 068 652   16 174 222
00000.M2TS      4357 (0x1105)   0x86            DTS-HD MA       eng (English)           5543,163                4 036                   2 796 692 160   16 063 402
00000.M2TS      4358 (0x1106)   0x81            AC3             rus (Russian)           5543,163                448                     310 403 072     1 732 160
00000.M2TS      4359 (0x1107)   0x81            AC3             rus (Russian)           5543,163                448                     310 360 064     1 731 920
00000.M2TS      4360 (0x1108)   0x81            AC3             rus (Russian)           5543,163                448                     310 356 480     1 731 900
00000.M2TS      4361 (0x1109)   0x81            AC3             ukr (Ukrainian)         5543,163                192                     133 039 872     866 145
00000.M2TS      4362 (0x110A)   0x81            AC3             eng (English)           5543,163                192                     133 065 216     866 310
00000.M2TS      4363 (0x110B)   0x81            AC3             eng (English)           5543,163                192                     133 065 216     866 310
00000.M2TS      4608 (0x1200)   0x90            PGS             eng (English)           5543,163                45                      31 362 814      177 587
00000.M2TS      4609 (0x1201)   0x90            PGS             rus (Russian)           5543,163                48                      33 092 422      187 620
00000.M2TS      4610 (0x1202)   0x90            PGS             ukr (Ukrainian)         5543,163                45                      31 044 404      176 506

Шрек Третий / Shrek the Third

Страна: США
Жанр: комедия, приключения, семейный, мультфильм
Продолжительность: 01:32:46
Год выпуска: 2007
Перевод: Профессиональный (дублированный)
Перевод (2): Профессиональный (двухголосый закадровый)
Перевод (3): Профессиональный (одноголосый закадровый)
Субтитры: English (Blu-ray CEE), Russian (Blu-ray CEE), Ukrainian (Blu-ray CEE)
Режиссёр: Крис Миллер / Chris Miller, Раман Хюи / Raman Hui
Роли озвучивали: Майк Майерс, Эдди Мёрфи, Кэмерон Диаз, Антонио Бандерас, Джули Эндрюс, Джон Клиз, Руперт Эверет, Эрик Айдл, Джастин Тимберлэйк, Сьюзан Блэйксли
Описание: Королем может быть не каждый - особенно если вы не очень симпатичный великан. Когда Шрэк женился на принцессе Фионе, он меньше всего на свете хотел управлять Далекой-Далекой страной. Такой он невластолюбивый. Однако отец Фионы, король Гарольд, внезапно умирает, и корону должен унаследовать именно Шрэк. Как-никак, он все-таки муж наследницы.
Однако Шрэк наотрез отказывается от бремени власти, и решает отправиться вместе со своими старыми друзьями Ослом и Котом в сапогах на поиски кандидата на трон. Если Шрэк не найдет себе подходящей замены, ему придется управлять сказочной страной самому... и это надолго. Похоже, что король Артур - тот, кто им нужен.
Однако в отсутствие великана его старый враг принц по имени Чарминг замышляет всякие пакости, для чего и возвращается в сказочную страну. Шрэку придется очень постараться, чтобы спасти страну от происков врагов и от возможного переворота.
Дополнительная информация: Внимание! Первая, вторая и третья части превышают максимальный битрейт для Blu-ray в 48мб/с. Не записывайте их на Blu-ray диски! Они не будут проигрываться на бытовых Blu-ray плеерах!
Релиз от:
Качество: BDRemux 1080p
Формат: BDAV
Видео кодек: MPEG-4 AVC
Аудио кодек: AC3, DTS-HD MA
Видео: 1920x1080 at 23.976 fps, MPEG-4 AVC, ~32376 kbps avg
Аудио: Russian: 48 kHz, AC3, 3/2 (L,C,R,l,r) + LFE ch, ~640.00 kbps avg |Дубляж, Blu-ray CEE|
Аудио 2: Ukrainian: 48 kHz, AC3, 3/2 (L,C,R,l,r) + LFE ch, ~640.00 kbps avg |Дубляж, Blu-ray CEE|
Аудио 3: Russian: 48 kHz/24-bit, DTS-HD MA 7.1, ~4091.00 kbps avg (DTS Core: 5.1 / 48 kHz / 1509 kbps / 24-bit) |Двухголосый закадровый, П. Гланц, И. Королёва|
Аудио 4: Russian: 48 kHz/24-bit, DTS-HD MA 7.1, ~4094.00 kbps avg (DTS Core: 5.1 / 48 kHz / 1509 kbps / 24-bit) |Одноголосый закадровый, А. Гаврилов|
Аудио 5: Russian: 48 kHz/24-bit, DTS-HD MA 7.1, ~4111.00 kbps avg (DTS Core: 5.1 / 48 kHz / 1509 kbps / 24-bit) |Одноголосый закадровый, В. Королёв|
Аудио 6: English: 48 kHz/24-bit, DTS-HD MA 7.1, ~4062.00 kbps avg (DTS Core: 5.1 / 48 kHz / 1509 kbps / 24-bit)

Код:

Total   Video
Title                                                           Codec   Length  Movie Size      Disc Size       Bitrate Bitrate Main Audio Track                          Secondary Audio Track
-----                                                           ------  ------- --------------  --------------  ------- ------- ------------------                        ---------------------
00000.MPLS                                                      AVC     1:32:48 37 215 805 440  37 215 893 536  53,47   32,38   DTS-HD Master 7.1 4062Kbps (48kHz/24-bit)

Код:

DISC INFO:
Disc Title:
Disc Size:      37 215 893 536 bytes
Protection:     AACS
BD-Java:        No
BDInfo:         0.5.3
PLAYLIST REPORT:
Name:                   00000.MPLS
Length:                 1:32:48 (h:m:s)
Size:                   37 215 805 440 bytes
Total Bitrate:          53,47 Mbps
VIDEO:
Codec                   Bitrate             Description
-----                   -------             -----------
MPEG-4 AVC Video        32376 kbps          1080p / 23,976 fps / 16:9 / High Profile 4.1
AUDIO:
Codec                           Language        Bitrate         Description
-----                           --------        -------         -----------
DTS-HD Master Audio             English         4062 kbps       7.1 / 48 kHz / 4062 kbps / 24-bit (DTS Core: 5.1 / 48 kHz / 1509 kbps / 24-bit)
DTS-HD Master Audio             Russian         4090 kbps       7.1 / 48 kHz / 4090 kbps / 24-bit (DTS Core: 5.1 / 48 kHz / 1509 kbps / 24-bit)
DTS-HD Master Audio             Russian         4093 kbps       7.1 / 48 kHz / 4093 kbps / 24-bit (DTS Core: 5.1 / 48 kHz / 1509 kbps / 24-bit)
DTS-HD Master Audio             Russian         4110 kbps       7.1 / 48 kHz / 4110 kbps / 24-bit (DTS Core: 5.1 / 48 kHz / 1509 kbps / 24-bit)
Dolby Digital Audio             Russian         640 kbps        5.1 / 48 kHz / 640 kbps
Dolby Digital Audio             Ukrainian       640 kbps        5.1 / 48 kHz / 640 kbps
SUBTITLES:
Codec                           Language        Bitrate         Description
-----                           --------        -------         -----------
Presentation Graphics           English         33,304 kbps
Presentation Graphics           English         26,652 kbps
Presentation Graphics           English         24,036 kbps
Presentation Graphics           Russian         31,654 kbps
Presentation Graphics           Ukrainian       30,381 kbps
FILES:
Name            Time In         Length          Size            Total Bitrate
----            -------         ------          ----            -------------
00000.M2TS      0:00:00.000     1:32:48.095     37 215 805 440  53 473
CHAPTERS:
Number          Time In         Length          Avg Video Rate  Max 1-Sec Rate  Max 1-Sec Time  Max 5-Sec Rate  Max 5-Sec Time  Max 10Sec Rate  Max 10Sec Time  Avg Frame Size  Max Frame Size  Max Frame Time
------          -------         ------          --------------  --------------  --------------  --------------  --------------  --------------  --------------  --------------  --------------  --------------
1               0:00:00.000     0:03:23.912     32 359 kbps     37 546 kbps     00:00:05.380    34 372 kbps     00:01:58.618    34 079 kbps     00:01:50.944    168 673 bytes   558 791 bytes   00:03:19.157
2               0:03:23.912     0:06:11.119     33 360 kbps     40 508 kbps     00:07:42.962    34 546 kbps     00:04:28.226    34 083 kbps     00:06:16.000    173 923 bytes   639 919 bytes   00:03:25.163
3               0:09:35.031     0:04:16.340     33 170 kbps     36 867 kbps     00:12:43.471    34 469 kbps     00:13:39.235    34 068 kbps     00:13:33.270    172 931 bytes   607 698 bytes   00:12:45.097
4               0:13:51.372     0:03:39.968     32 650 kbps     37 139 kbps     00:14:00.214    34 233 kbps     00:14:04.176    34 069 kbps     00:14:00.214    170 221 bytes   556 157 bytes   00:14:01.173
5               0:17:31.340     0:07:44.548     32 857 kbps     37 647 kbps     00:18:03.957    34 475 kbps     00:20:00.741    34 175 kbps     00:20:00.741    171 302 bytes   640 959 bytes   00:21:19.236
6               0:25:15.889     0:07:00.210     33 324 kbps     37 914 kbps     00:26:35.719    34 579 kbps     00:26:26.001    34 212 kbps     00:26:24.874    173 738 bytes   641 054 bytes   00:26:42.100
7               0:32:16.100     0:06:19.630     32 800 kbps     38 236 kbps     00:35:21.911    34 439 kbps     00:33:32.301    34 113 kbps     00:34:07.545    171 006 bytes   641 017 bytes   00:32:23.608
8               0:38:35.730     0:02:41.286     33 195 kbps     36 887 kbps     00:40:15.663    34 592 kbps     00:40:11.575    34 024 kbps     00:38:49.785    173 065 bytes   541 873 bytes   00:38:46.032
9               0:41:17.016     0:07:58.561     32 907 kbps     37 708 kbps     00:42:06.774    34 551 kbps     00:44:02.014    34 209 kbps     00:43:27.354    171 560 bytes   640 748 bytes   00:42:03.145
10              0:49:15.577     0:02:39.659     32 663 kbps     36 603 kbps     00:50:06.253    34 355 kbps     00:50:47.169    34 067 kbps     00:49:56.326    170 290 bytes   636 813 bytes   00:50:39.035
11              0:51:55.237     0:04:55.920     33 292 kbps     37 782 kbps     00:54:28.390    34 544 kbps     00:53:15.859    34 201 kbps     00:52:03.995    173 571 bytes   640 981 bytes   00:52:00.992
12              0:56:51.157     0:02:33.153     33 175 kbps     37 624 kbps     00:58:18.745    34 569 kbps     00:58:56.115    34 167 kbps     00:58:45.313    172 959 bytes   640 817 bytes   00:56:52.158
13              0:59:24.310     0:04:05.953     33 067 kbps     37 397 kbps     00:59:57.677    34 419 kbps     01:03:20.463    34 095 kbps     01:03:15.458    172 397 bytes   640 790 bytes   01:00:03.349
14              1:03:30.264     0:03:38.010     32 728 kbps     37 328 kbps     01:06:27.900    34 544 kbps     01:06:23.896    34 170 kbps     01:06:19.892    170 631 bytes   639 850 bytes   01:03:34.936
15              1:07:08.274     0:03:22.911     33 098 kbps     41 233 kbps     01:09:05.516    34 597 kbps     01:07:36.302    34 184 kbps     01:09:47.975    172 560 bytes   641 071 bytes   01:07:29.003
16              1:10:31.185     0:09:13.094     32 971 kbps     37 401 kbps     01:13:12.179    34 540 kbps     01:13:08.175    34 140 kbps     01:17:27.934    171 895 bytes   640 904 bytes   01:15:12.466
17              1:19:44.279     0:02:40.493     32 888 kbps     37 281 kbps     01:21:21.126    34 391 kbps     01:21:20.584    34 005 kbps     01:20:11.765    171 465 bytes   639 659 bytes   01:20:43.797
18              1:22:24.773     0:10:23.322     27 485 kbps     40 226 kbps     01:22:56.513    34 505 kbps     01:31:05.668    34 052 kbps     01:31:09.672    143 369 bytes   640 894 bytes   01:22:50.048
STREAM DIAGNOSTICS:
File            PID             Type            Codec           Language                Seconds                 Bitrate                 Bytes           Packets
----            ---             ----            -----           --------                --------------          --------------          -------------   -----
00000.M2TS      4113 (0x1011)   0x1B            AVC                                     5567,645                32 377                  22 532 821 956  122 538 621
00000.M2TS      4352 (0x1100)   0x81            AC3             rus (Russian)           5567,645                640                     445 450 240     2 610 060
00000.M2TS      4353 (0x1101)   0x81            AC3             ukr (Ukrainian)         5567,645                640                     445 450 240     2 610 060
00000.M2TS      4354 (0x1102)   0x86            DTS-HD MA       rus (Russian)           5567,645                4 091                   2 846 809 376   16 339 661
00000.M2TS      4355 (0x1103)   0x86            DTS-HD MA       rus (Russian)           5567,645                4 094                   2 848 963 660   16 352 021
00000.M2TS      4356 (0x1104)   0x86            DTS-HD MA       rus (Russian)           5567,645                4 111                   2 860 805 064   16 416 239
00000.M2TS      4357 (0x1105)   0x86            DTS-HD MA       eng (English)           5567,645                4 062                   2 826 961 684   16 232 673
00000.M2TS      4608 (0x1200)   0x90            PGS             eng (English)           5567,645                33                      23 178 817      133 434
00000.M2TS      4609 (0x1201)   0x90            PGS             eng (English)           5567,645                27                      18 549 144      114 807
00000.M2TS      4610 (0x1202)   0x90            PGS             eng (English)           5567,645                24                      16 728 698      98 312
00000.M2TS      4611 (0x1203)   0x90            PGS             rus (Russian)           5567,645                32                      22 030 212      127 308
00000.M2TS      4612 (0x1204)   0x90            PGS             ukr (Ukrainian)         5567,645                30                      21 144 551      122 394

Шрек навсегда / Shrek Forever After

Страна: США
Жанр: комедия, приключения, семейный, мультфильм
Продолжительность: 01:33:10
Год выпуска: 2010
Перевод: Профессиональный (дублированный)
Субтитры: English (Blu-ray CEE), Russian (Blu-ray CEE), Ukrainian (Blu-ray CEE)
Режиссёр: Майк Митчел / Mike Mitchell
Роли озвучивали: Майк Майерс, Эдди Мёрфи, Кэмерон Диаз, Антонио Бандерас, Джули Эндрюс, Джон Хэмм, Джон Клиз, Крэйг Робинсон, Уолт Дорн, Джейн Линч
Описание: Чем бы еще заняться огру, который уже сразился со злым драконом, спас прекрасную принцессу и уберег от беды королевство родственников по линии жены? Что ж, если вы Шрэк, то, сами того не заметив, вы вдруг сядете дома и станете наслаждаться покоем в кругу семьи. Вместо того чтобы как раньше пугать деревенских жителей, теперь Шрэк, хоть и с неохотой, но соглашается оставлять автографы на их вилах. А куда же подевался знаменитый рык этого огра?
Под грузом воспоминаний о днях, когда он чувствовал себя «настоящим огром», Шрэк поддается на уговоры сладкоголосого Румпельштильцхена и заключает с ним договор. Сразу после этого Шрэк оказывается в альтернативной реальности Тридевятого королевства, где все поставлено с ног на голову: на огров здесь охотятся, Румпельштильцхен восседает на троне, а Шрэк и Фиона даже не знакомы. И теперь только сам Шрэк может исправить все, что он натворил, чтобы спасти друзей, восстановить привычный ему порядок вещей и вернуть себе свою единственную Истинную Любовь.
Релиз от:
Качество: Blu-Ray Remux
Формат: BDAV
Видео кодек: MPEG-4 AVC
Аудио кодек: AC3, DTS-HD MA
Видео: 1920x1080 at 23.976 fps, MPEG-4 AVC, ~31060 kbps avg
Аудио: Russian: 48 kHz, AC3, 3/2 (L,C,R,l,r) + LFE ch, ~640.00 kbps avg |Дубляж, Blu-ray CEE|
Аудио 2: Ukrainian: 48 kHz, AC3, 3/2 (L,C,R,l,r) + LFE ch, ~640.00 kbps avg |Дубляж, Blu-ray CEE|
Аудио 3: English: 48 kHz/24-bit, DTS-HD MA 7.1, ~3728.00 kbps avg (DTS Core: 5.1 / 48 kHz / 1509 kbps / 24-bit)

Код:

Total   Video
Title                                                           Codec   Length  Movie Size      Disc Size       Bitrate Bitrate Main Audio Track                          Secondary Audio Track
-----                                                           ------  ------- --------------  --------------  ------- ------- ------------------                        ---------------------
00000.MPLS                                                      AVC     1:33:10 26 675 963 904  26 676 046 264  38,17   31,06   DTS-HD Master 7.1 3727Kbps (48kHz/24-bit)

Код:

DISC INFO:
Disc Title:
Disc Size:      26 676 046 264 bytes
Protection:     AACS
BD-Java:        No
BDInfo:         0.5.3
PLAYLIST REPORT:
Name:                   00000.MPLS
Length:                 1:33:10 (h:m:s)
Size:                   26 675 963 904 bytes
Total Bitrate:          38,17 Mbps
VIDEO:
Codec                   Bitrate             Description
-----                   -------             -----------
MPEG-4 AVC Video        31060 kbps          1080p / 23,976 fps / 16:9 / High Profile 4.1
AUDIO:
Codec                           Language        Bitrate         Description
-----                           --------        -------         -----------
DTS-HD Master Audio             English         3727 kbps       7.1 / 48 kHz / 3727 kbps / 24-bit (DTS Core: 5.1 / 48 kHz / 1509 kbps / 24-bit)
Dolby Digital Audio             Russian         640 kbps        5.1 / 48 kHz / 640 kbps / DN -4dB
Dolby Digital Audio             Ukrainian       640 kbps        5.1 / 48 kHz / 640 kbps / DN -4dB
SUBTITLES:
Codec                           Language        Bitrate         Description
-----                           --------        -------         -----------
Presentation Graphics           English         43,946 kbps
Presentation Graphics           Russian         43,662 kbps
Presentation Graphics           Ukrainian       42,429 kbps
FILES:
Name            Time In         Length          Size            Total Bitrate
----            -------         ------          ----            -------------
00000.M2TS      0:00:00.000     1:33:10.474     26 675 963 904  38 174
CHAPTERS:
Number          Time In         Length          Avg Video Rate  Max 1-Sec Rate  Max 1-Sec Time  Max 5-Sec Rate  Max 5-Sec Time  Max 10Sec Rate  Max 10Sec Time  Avg Frame Size  Max Frame Size  Max Frame Time
------          -------         ------          --------------  --------------  --------------  --------------  --------------  --------------  --------------  --------------  --------------  --------------
1               0:00:00.000     0:04:47.786     30 689 kbps     37 990 kbps     00:01:43.561    36 240 kbps     00:01:38.598    36 003 kbps     00:00:22.689    159 976 bytes   575 644 bytes   00:04:47.704
2               0:04:47.786     0:03:52.149     30 762 kbps     42 499 kbps     00:04:53.126    36 465 kbps     00:05:24.115    36 046 kbps     00:05:21.154    160 380 bytes   641 083 bytes   00:06:58.709
3               0:08:39.935     0:06:11.788     31 430 kbps     40 481 kbps     00:08:58.162    36 412 kbps     00:08:54.200    36 073 kbps     00:09:44.208    163 861 bytes   639 545 bytes   00:14:36.875
4               0:14:51.724     0:04:59.466     30 841 kbps     38 945 kbps     00:19:42.347    36 338 kbps     00:14:58.564    36 074 kbps     00:14:53.559    160 767 bytes   630 342 bytes   00:15:03.569
5               0:19:51.190     0:04:52.125     32 315 kbps     39 852 kbps     00:20:57.297    36 371 kbps     00:22:16.960    35 954 kbps     00:22:11.913    168 502 bytes   640 984 bytes   00:23:16.520
6               0:24:43.315     0:08:39.018     31 424 kbps     38 887 kbps     00:29:56.961    36 492 kbps     00:25:20.894    35 947 kbps     00:25:17.015    163 831 bytes   639 320 bytes   00:25:25.815
7               0:33:22.333     0:07:49.136     30 702 kbps     40 595 kbps     00:41:00.457    36 508 kbps     00:37:27.620    36 111 kbps     00:34:52.256    160 055 bytes   641 002 bytes   00:35:05.019
8               0:41:11.469     0:03:39.802     31 679 kbps     38 205 kbps     00:41:53.260    36 147 kbps     00:41:12.344    34 996 kbps     00:41:28.277    165 191 bytes   509 967 bytes   00:41:54.011
9               0:44:51.271     0:03:41.179     31 278 kbps     38 260 kbps     00:46:45.052    35 124 kbps     00:47:19.878    34 622 kbps     00:47:42.609    163 070 bytes   575 690 bytes   00:46:56.146
10              0:48:32.451     0:02:59.179     29 972 kbps     37 598 kbps     00:49:29.633    35 441 kbps     00:49:57.744    33 742 kbps     00:49:56.743    156 258 bytes   484 467 bytes   00:48:34.369
11              0:51:31.630     0:01:30.757     30 180 kbps     36 856 kbps     00:51:41.431    35 134 kbps     00:52:27.769    34 367 kbps     00:52:26.935    157 342 bytes   504 487 bytes   00:51:53.735
12              0:53:02.387     0:05:23.572     31 367 kbps     38 366 kbps     00:56:00.523    36 079 kbps     00:53:58.193    35 083 kbps     00:53:54.564    163 532 bytes   525 742 bytes   00:55:02.716
13              0:58:25.960     0:04:47.787     31 339 kbps     37 646 kbps     01:02:20.695    35 969 kbps     00:59:03.206    35 410 kbps     00:58:59.202    163 386 bytes   516 063 bytes   01:02:24.657
14              1:03:13.747     0:02:35.113     28 381 kbps     38 534 kbps     01:04:32.076    35 091 kbps     01:04:27.989    33 906 kbps     01:04:22.984    147 965 bytes   495 133 bytes   01:03:51.077
15              1:05:48.861     0:06:45.614     29 705 kbps     38 113 kbps     01:06:23.854    36 255 kbps     01:06:39.328    35 980 kbps     01:07:18.743    154 869 bytes   589 954 bytes   01:06:26.857
16              1:12:34.475     0:07:25.944     31 884 kbps     38 327 kbps     01:19:53.997    36 101 kbps     01:18:53.728    35 444 kbps     01:18:49.724    166 226 bytes   511 039 bytes   01:12:41.023
17              1:20:00.420     0:03:13.402     32 902 kbps     38 513 kbps     01:22:24.314    36 341 kbps     01:22:33.657    35 923 kbps     01:22:35.450    171 535 bytes   627 548 bytes   01:22:27.233
18              1:23:13.822     0:09:56.652     30 835 kbps     37 741 kbps     01:23:44.477    36 154 kbps     01:25:45.306    35 889 kbps     01:32:01.057    160 774 bytes   641 076 bytes   01:26:34.230
STREAM DIAGNOSTICS:
File            PID             Type            Codec           Language                Seconds                 Bitrate                 Bytes           Packets
----            ---             ----            -----           --------                --------------          --------------          -------------   -----
00000.M2TS      4113 (0x1011)   0x1B            AVC                                     5590,293                31 060                  21 704 634 961  118 038 098
00000.M2TS      4352 (0x1100)   0x81            AC3             rus (Russian)           5590,293                640                     447 237 120     2 620 530
00000.M2TS      4353 (0x1101)   0x81            AC3             ukr (Ukrainian)         5590,293                640                     447 237 120     2 620 530
00000.M2TS      4354 (0x1102)   0x86            DTS-HD MA       eng (English)           5590,293                3 727                   2 604 119 064   15 025 061
00000.M2TS      4608 (0x1200)   0x90            PGS             eng (English)           5590,293                44                      30 709 798      173 996
00000.M2TS      4609 (0x1201)   0x90            PGS             rus (Russian)           5590,293                44                      30 511 639      173 154
00000.M2TS      4610 (0x1202)   0x90            PGS             ukr (Ukrainian)         5590,293                42                      29 649 954      168 296
info [Профиль]  [ЛС] 

ofrank0

Пол: Пол:Муж

Стаж: 7 лет 3 месяца

Сообщений: 1570

Предупреждений: 3

Французские Юж. и Антарктич. Тер-рии
Рейтинг

post 01-Июн-2015 12:28 (спустя 13 часов) [-]1[+]

[Цитировать] 

Shrek is Love, Shrek is Life

_________________
info [Профиль]  [ЛС] 
Показать сообщения:    
Ответить на тему

Текущее время: 11-Дек 12:04

Часовой пояс: GMT + 4



Вы не можете начинать темы
Вы не можете отвечать на сообщения
Вы не можете редактировать свои сообщения
Вы не можете удалять свои сообщения
Вы не можете голосовать в опросах
Вы не можете прикреплять файлы к сообщениям
Вы не можете скачивать файлы