Ошибка

(Score) The Witcher 3: Wild Hunt / Ведьмак 3: Дикая Охота (by Marcin Przybyłowicz, Mikolai Stroinski, Percival) {CD} - 2015, FLAC (tracks+.cue), lossless

Ответить на тему
 
Автор Сообщение

L

Пол: Пол:Муж

Стаж: 6 лет 7 месяцев

Сообщений: 10808

Украина
Рейтинг

post 23-Май-2015 06:50 1[+]

[Цитировать] 

The Witcher 3: Wild Hunt / Ведьмак 3: Дикая Охота
Жанр: Score
Композиторы: Marcin Przybyłowicz, Mikolai Stroinski, Percival
Год выпуска диска: 2015
Издатель (лейбл): CD Project Red / 1C SoftClub
Номер по каталогу: ALAB_RUS

Аудиокодек: FLAC (*.flac)
Тип рипа: tracks+.cue
Битрейт аудио: lossless
Продолжительность: 01:10:45

Источник: собственный рип
Наличие сканов в содержимом раздачи: да

Треклист:
01. Marcin Przybylowicz - The Trail (2:51)
02. Marcin Przybylowicz - Geralt of Rivia (2:22)
03. Marcin Przybylowicz - Eredin, King of the Hunt (2:28)
04. Mikolai Stroinski - Wake Up, Ciri (1:34)
05. Mikolai Stroinski - Aen Seidhe (2:37)
06. Mikolai Stroinski - Commanding the Fury (2:09)
07. Marcin Przybylowicz - Emhyr var Emreis (2:30)
08. Mikolai Stroinski - Spikeroog (3:06)
09. Marcin Przybylowicz - King Bran's Final Voyage (2:12)
10. Percival & Marcin Przybylowicz - Silver for Monsters... (2:20)
11. Mikolai Stroinski - Whispers of Oxenfurt (2:35)
12. Percival - The Nightingale (1:41)
13. Mikolai Stroinski - City of Intrigues (2:07)
14. Marcin Przybylowicz - Hunter's Path (2:53)
15. Mikolai Stroinski - Widow-maker (2:11)
16. Marcin Przybylowicz - Kaer Morhen (2:35)
17. Mikolai Stroinski - Eyes of the Wolf (2:05)
18. Mikolai Stroinski - Witch Hunters (2:40)
19. Percival & Marcin Przybylowicz - ...Steel for Humans (1:28)
20. Mikolai Stroinski - Fate Calls (1:58)
21. Marcin Przybylowicz - The Vagabond (2:48)
22. Percival - Cloak and Dagger (2:47)
23. Mikolai Stroinski - Forged in Fire (2:05)
24. Mikolai Stroinski - Yes, I Do... (1:34)
25. Mikolai Stroinski - Welcome, Imlerith (2:45)
26. Percival - Drink Up, Theres More! (1:37)
27. Mikolai Stroinski - After the Storm (1:31)
28. Mikolai Stroinski - Blood on the Cobblestones (2:02)
29. Marcin Przybylowicz - Farewell, Old Friend (2:53)
30. Percival & Marcin Przybylowicz - The Song of the SwordDancer (2:14)
31. Marcin Przybylowicz - The Hunt is Coming (2:07)

Код:

Exact Audio Copy V1.0 beta 3 from 29. August 2011

EAC extraction logfile from 20. May 2015, 3:54

Various Artists / The Witcher 3: Wild Hunt Official Soundtrack

Used drive  : TSSTcorpCDDVDW SH-S222A   Adapter: 4  ID: 0

Read mode               : Secure
Utilize accurate stream : Yes
Defeat audio cache      : Yes
Make use of C2 pointers : No

Read offset correction                      : 6
Overread into Lead-In and Lead-Out          : No
Fill up missing offset samples with silence : Yes
Delete leading and trailing silent blocks   : No
Null samples used in CRC calculations       : Yes
Used interface                              : Native Win32 interface for Win NT & 2000
Gap handling                                : Appended to previous track

Used output format              : User Defined Encoder
Selected bitrate                : 1024 kBit/s
Quality                         : High
Add ID3 tag                     : No
Command line compressor         : D:\Program Files (x86)\FLAC\flac.exe
Additional command line options : -V -8 -T "Genre=%genre%" -T "Artist=%artist%" -T "Title=%title%" -T "Album=%albumtitle%" -T "Date=%year%" -T "Tracknumber=%tracknr%" -T "Comment=%comment%" %source%

TOC of the extracted CD

     Track |   Start  |  Length  | Start sector | End sector
    ---------------------------------------------------------
        1  |  0:00.00 |  2:51.00 |         0    |    12824
        2  |  2:51.00 |  2:22.17 |     12825    |    23491
        3  |  5:13.17 |  2:28.56 |     23492    |    34647
        4  |  7:41.73 |  1:34.69 |     34648    |    41766
        5  |  9:16.67 |  2:37.02 |     41767    |    53543
        6  | 11:53.69 |  2:09.42 |     53544    |    63260
        7  | 14:03.36 |  2:30.73 |     63261    |    74583
        8  | 16:34.34 |  3:06.40 |     74584    |    88573
        9  | 19:40.74 |  2:12.72 |     88574    |    98545
       10  | 21:53.71 |  2:20.07 |     98546    |   109052
       11  | 24:14.03 |  2:35.69 |    109053    |   120746
       12  | 26:49.72 |  1:41.02 |    120747    |   128323
       13  | 28:30.74 |  2:07.34 |    128324    |   137882
       14  | 30:38.33 |  2:53.37 |    137883    |   150894
       15  | 33:31.70 |  2:11.65 |    150895    |   160784
       16  | 35:43.60 |  2:35.24 |    160785    |   172433
       17  | 38:19.09 |  2:05.53 |    172434    |   181861
       18  | 40:24.62 |  2:40.39 |    181862    |   193900
       19  | 43:05.26 |  1:28.04 |    193901    |   200504
       20  | 44:33.30 |  1:58.42 |    200505    |   209396
       21  | 46:31.72 |  2:48.51 |    209397    |   222047
       22  | 49:20.48 |  2:47.27 |    222048    |   234599
       23  | 52:08.00 |  2:05.04 |    234600    |   243978
       24  | 54:13.04 |  1:34.16 |    243979    |   251044
       25  | 55:47.20 |  2:45.31 |    251045    |   263450
       26  | 58:32.51 |  1:37.60 |    263451    |   270785
       27  | 60:10.36 |  1:31.58 |    270786    |   277668
       28  | 61:42.19 |  2:02.54 |    277669    |   286872
       29  | 63:44.73 |  2:53.38 |    286873    |   299885
       30  | 66:38.36 |  2:14.31 |    299886    |   309966
       31  | 68:52.67 |  2:07.10 |    309967    |   319501

Track  1

     Filename C:\Spybionic\The Witcher 3 Wild Hunt Official Soundtrack - 2015 - Marcin Przybylowicz, Mikolai Stroinski\01. The Trail.wav

     Pre-gap length  0:00:02.00

     Peak level 95.5 %
     Extraction speed 1.6 X
     Track quality 99.9 %
     Test CRC 523E5CCD
     Copy CRC 523E5CCD
     Copy OK

Track  2

     Filename C:\Spybionic\The Witcher 3 Wild Hunt Official Soundtrack - 2015 - Marcin Przybylowicz, Mikolai Stroinski\02. Geralt of Rivia.wav

     Peak level 95.5 %
     Extraction speed 1.9 X
     Track quality 100.0 %
     Test CRC BDA437A7
     Copy CRC BDA437A7
     Copy OK

Track  3

     Filename C:\Spybionic\The Witcher 3 Wild Hunt Official Soundtrack - 2015 - Marcin Przybylowicz, Mikolai Stroinski\03. Eredin, King of the Hunt.wav

     Peak level 95.4 %
     Extraction speed 1.7 X
     Track quality 99.9 %
     Test CRC 402E5BB8
     Copy CRC 402E5BB8
     Copy OK

Track  4

     Filename C:\Spybionic\The Witcher 3 Wild Hunt Official Soundtrack - 2015 - Marcin Przybylowicz, Mikolai Stroinski\04. Wake Up, Ciri.wav

     Peak level 69.4 %
     Extraction speed 1.5 X
     Track quality 99.8 %
     Test CRC 05C4A724
     Copy CRC 05C4A724
     Copy OK

Track  5

     Filename C:\Spybionic\The Witcher 3 Wild Hunt Official Soundtrack - 2015 - Marcin Przybylowicz, Mikolai Stroinski\05. Aen Seidhe.wav

     Peak level 95.4 %
     Extraction speed 1.9 X
     Track quality 99.9 %
     Test CRC FDE52256
     Copy CRC FDE52256
     Copy OK

Track  6

     Filename C:\Spybionic\The Witcher 3 Wild Hunt Official Soundtrack - 2015 - Marcin Przybylowicz, Mikolai Stroinski\06. Commanding the Fury.wav

     Peak level 100.0 %
     Extraction speed 2.2 X
     Track quality 100.0 %
     Test CRC 2DB2B3B8
     Copy CRC 2DB2B3B8
     Copy OK

Track  7

     Filename C:\Spybionic\The Witcher 3 Wild Hunt Official Soundtrack - 2015 - Marcin Przybylowicz, Mikolai Stroinski\07. Emhyr var Emreis.wav

     Peak level 95.3 %
     Extraction speed 2.4 X
     Track quality 100.0 %
     Test CRC 8660F153
     Copy CRC 8660F153
     Copy OK

Track  8

     Filename C:\Spybionic\The Witcher 3 Wild Hunt Official Soundtrack - 2015 - Marcin Przybylowicz, Mikolai Stroinski\08. Spikeroog.wav

     Peak level 90.0 %
     Extraction speed 2.2 X
     Track quality 99.9 %
     Test CRC 0DD5653E
     Copy CRC 0DD5653E
     Copy OK

Track  9

     Filename C:\Spybionic\The Witcher 3 Wild Hunt Official Soundtrack - 2015 - Marcin Przybylowicz, Mikolai Stroinski\09. King Bran's Final Voyage.wav

     Peak level 95.2 %
     Extraction speed 2.6 X
     Track quality 100.0 %
     Test CRC E8C93FA0
     Copy CRC E8C93FA0
     Copy OK

Track 10

     Filename C:\Spybionic\The Witcher 3 Wild Hunt Official Soundtrack - 2015 - Marcin Przybylowicz, Mikolai Stroinski\10. Silver for Monsters....wav

     Peak level 95.5 %
     Extraction speed 2.1 X
     Track quality 99.9 %
     Test CRC ECAE68FC
     Copy CRC ECAE68FC
     Copy OK

Track 11

     Filename C:\Spybionic\The Witcher 3 Wild Hunt Official Soundtrack - 2015 - Marcin Przybylowicz, Mikolai Stroinski\11. Whispers of Oxenfurt.wav

     Peak level 95.2 %
     Extraction speed 2.8 X
     Track quality 100.0 %
     Test CRC CB455913
     Copy CRC CB455913
     Copy OK

Track 12

     Filename C:\Spybionic\The Witcher 3 Wild Hunt Official Soundtrack - 2015 - Marcin Przybylowicz, Mikolai Stroinski\12. The Nightingale.wav

     Peak level 95.5 %
     Extraction speed 2.6 X
     Track quality 100.0 %
     Test CRC E0958381
     Copy CRC E0958381
     Copy OK

Track 13

     Filename C:\Spybionic\The Witcher 3 Wild Hunt Official Soundtrack - 2015 - Marcin Przybylowicz, Mikolai Stroinski\13. City of Intrigues.wav

     Peak level 99.7 %
     Extraction speed 2.3 X
     Track quality 99.9 %
     Test CRC 578D5085
     Copy CRC 578D5085
     Copy OK

Track 14

     Filename C:\Spybionic\The Witcher 3 Wild Hunt Official Soundtrack - 2015 - Marcin Przybylowicz, Mikolai Stroinski\14. Hunter's Path.wav

     Peak level 95.5 %
     Extraction speed 3.1 X
     Track quality 100.0 %
     Test CRC 0CCA24E5
     Copy CRC 0CCA24E5
     Copy OK

Track 15

     Filename C:\Spybionic\The Witcher 3 Wild Hunt Official Soundtrack - 2015 - Marcin Przybylowicz, Mikolai Stroinski\15. Widow-maker.wav

     Peak level 100.0 %
     Extraction speed 3.0 X
     Track quality 100.0 %
     Test CRC 89C775B4
     Copy CRC 89C775B4
     Copy OK

Track 16

     Filename C:\Spybionic\The Witcher 3 Wild Hunt Official Soundtrack - 2015 - Marcin Przybylowicz, Mikolai Stroinski\16. Kaer Morhen.wav

     Peak level 95.2 %
     Extraction speed 3.2 X
     Track quality 100.0 %
     Test CRC 25EEA4D2
     Copy CRC 25EEA4D2
     Copy OK

Track 17

     Filename C:\Spybionic\The Witcher 3 Wild Hunt Official Soundtrack - 2015 - Marcin Przybylowicz, Mikolai Stroinski\17. Eyes of the Wolf.wav

     Peak level 91.8 %
     Extraction speed 3.1 X
     Track quality 100.0 %
     Test CRC 237D3BC0
     Copy CRC 237D3BC0
     Copy OK

Track 18

     Filename C:\Spybionic\The Witcher 3 Wild Hunt Official Soundtrack - 2015 - Marcin Przybylowicz, Mikolai Stroinski\18. Witch Hunters.wav

     Peak level 95.4 %
     Extraction speed 3.3 X
     Track quality 100.0 %
     Test CRC A706D442
     Copy CRC A706D442
     Copy OK

Track 19

     Filename C:\Spybionic\The Witcher 3 Wild Hunt Official Soundtrack - 2015 - Marcin Przybylowicz, Mikolai Stroinski\19. ...Steel for Humans.wav

     Peak level 98.5 %
     Extraction speed 2.9 X
     Track quality 100.0 %
     Test CRC C49032B1
     Copy CRC C49032B1
     Copy OK

Track 20

     Filename C:\Spybionic\The Witcher 3 Wild Hunt Official Soundtrack - 2015 - Marcin Przybylowicz, Mikolai Stroinski\20. Fate Calls.wav

     Peak level 67.4 %
     Extraction speed 3.2 X
     Track quality 100.0 %
     Test CRC D6E66B29
     Copy CRC D6E66B29
     Copy OK

Track 21

     Filename C:\Spybionic\The Witcher 3 Wild Hunt Official Soundtrack - 2015 - Marcin Przybylowicz, Mikolai Stroinski\21. The Vagabond.wav

     Peak level 95.5 %
     Extraction speed 3.5 X
     Track quality 100.0 %
     Test CRC D1D6C2D7
     Copy CRC D1D6C2D7
     Copy OK

Track 22

     Filename C:\Spybionic\The Witcher 3 Wild Hunt Official Soundtrack - 2015 - Marcin Przybylowicz, Mikolai Stroinski\22. Cloak and Dagger.wav

     Peak level 95.2 %
     Extraction speed 3.5 X
     Track quality 100.0 %
     Test CRC BED21AA2
     Copy CRC BED21AA2
     Copy OK

Track 23

     Filename C:\Spybionic\The Witcher 3 Wild Hunt Official Soundtrack - 2015 - Marcin Przybylowicz, Mikolai Stroinski\23. Forged in Fire.wav

     Peak level 97.1 %
     Extraction speed 3.4 X
     Track quality 100.0 %
     Test CRC FBE6B20B
     Copy CRC FBE6B20B
     Copy OK

Track 24

     Filename C:\Spybionic\The Witcher 3 Wild Hunt Official Soundtrack - 2015 - Marcin Przybylowicz, Mikolai Stroinski\24. Yes, I Do....wav

     Peak level 86.5 %
     Extraction speed 3.1 X
     Track quality 100.0 %
     Test CRC FE2D11C7
     Copy CRC FE2D11C7
     Copy OK

Track 25

     Filename C:\Spybionic\The Witcher 3 Wild Hunt Official Soundtrack - 2015 - Marcin Przybylowicz, Mikolai Stroinski\25. Welcome, Imlerith.wav

     Peak level 95.5 %
     Extraction speed 3.7 X
     Track quality 100.0 %
     Test CRC BAAAD541
     Copy CRC BAAAD541
     Copy OK

Track 26

     Filename C:\Spybionic\The Witcher 3 Wild Hunt Official Soundtrack - 2015 - Marcin Przybylowicz, Mikolai Stroinski\26. Drink Up, Theres More!.wav

     Peak level 95.2 %
     Extraction speed 3.3 X
     Track quality 100.0 %
     Test CRC 68D41FEA
     Copy CRC 68D41FEA
     Copy OK

Track 27

     Filename C:\Spybionic\The Witcher 3 Wild Hunt Official Soundtrack - 2015 - Marcin Przybylowicz, Mikolai Stroinski\27. After the Storm.wav

     Peak level 89.4 %
     Extraction speed 3.3 X
     Track quality 100.0 %
     Test CRC 80E8EA5D
     Copy CRC 80E8EA5D
     Copy OK

Track 28

     Filename C:\Spybionic\The Witcher 3 Wild Hunt Official Soundtrack - 2015 - Marcin Przybylowicz, Mikolai Stroinski\28. Blood on the Cobblestones.wav

     Peak level 100.0 %
     Extraction speed 3.6 X
     Track quality 100.0 %
     Test CRC BBC20246
     Copy CRC BBC20246
     Copy OK

Track 29

     Filename C:\Spybionic\The Witcher 3 Wild Hunt Official Soundtrack - 2015 - Marcin Przybylowicz, Mikolai Stroinski\29. Farewell, Old Friend.wav

     Peak level 90.9 %
     Extraction speed 3.9 X
     Track quality 100.0 %
     Test CRC A2DF4552
     Copy CRC A2DF4552
     Copy OK

Track 30

     Filename C:\Spybionic\The Witcher 3 Wild Hunt Official Soundtrack - 2015 - Marcin Przybylowicz, Mikolai Stroinski\30. The Song of the SwordDancer.wav

     Peak level 95.5 %
     Extraction speed 3.1 X
     Track quality 99.9 %
     Test CRC FCBD1A39
     Copy CRC FCBD1A39
     Copy OK

Track 31

     Filename C:\Spybionic\The Witcher 3 Wild Hunt Official Soundtrack - 2015 - Marcin Przybylowicz, Mikolai Stroinski\31. The Hunt is Coming.wav

     Peak level 95.5 %
     Extraction speed 3.0 X
     Track quality 99.9 %
     Test CRC 1A2D1F70
     Copy CRC 1A2D1F70
     Copy OK

No errors occurred

End of status report

==== Log checksum 2874F7F404EBB94CAFC9F93E8A12DA14B8A3DBB04F2EEEBD64A5523F74301D8D ====

Код:

REM GENRE Soundtrack
REM DATE 2015
REM DISCID 9E10A41F
REM COMMENT "ExactAudioCopy v1.0b3"
PERFORMER "Various Artists"
TITLE "The Witcher 3: Wild Hunt Official Soundtrack"
FILE "01. The Trail.wav" WAVE
  TRACK 01 AUDIO
    TITLE "The Trail"
    PERFORMER "Marcin Przybylowicz"
    INDEX 01 00:00:00
FILE "02. Geralt of Rivia.wav" WAVE
  TRACK 02 AUDIO
    TITLE "Geralt of Rivia"
    PERFORMER "Marcin Przybylowicz"
    INDEX 01 00:00:00
FILE "03. Eredin, King of the Hunt.wav" WAVE
  TRACK 03 AUDIO
    TITLE "Eredin, King of the Hunt"
    PERFORMER "Marcin Przybylowicz"
    INDEX 01 00:00:00
FILE "04. Wake Up, Ciri.wav" WAVE
  TRACK 04 AUDIO
    TITLE "Wake Up, Ciri"
    PERFORMER "Mikolai Stroinski"
    INDEX 01 00:00:00
FILE "05. Aen Seidhe.wav" WAVE
  TRACK 05 AUDIO
    TITLE "Aen Seidhe"
    PERFORMER "Mikolai Stroinski"
    INDEX 01 00:00:00
FILE "06. Commanding the Fury.wav" WAVE
  TRACK 06 AUDIO
    TITLE "Commanding the Fury"
    PERFORMER "Mikolai Stroinski"
    INDEX 01 00:00:00
FILE "07. Emhyr var Emreis.wav" WAVE
  TRACK 07 AUDIO
    TITLE "Emhyr var Emreis"
    PERFORMER "Marcin Przybylowicz"
    INDEX 01 00:00:00
FILE "08. Spikeroog.wav" WAVE
  TRACK 08 AUDIO
    TITLE "Spikeroog"
    PERFORMER "Mikolai Stroinski"
    INDEX 01 00:00:00
FILE "09. King Bran's Final Voyage.wav" WAVE
  TRACK 09 AUDIO
    TITLE "King Bran's Final Voyage"
    PERFORMER "Marcin Przybylowicz"
    INDEX 01 00:00:00
FILE "10. Silver for Monsters....wav" WAVE
  TRACK 10 AUDIO
    TITLE "Silver for Monsters..."
    PERFORMER "Percival & Marcin Przybylowicz"
    INDEX 01 00:00:00
FILE "11. Whispers of Oxenfurt.wav" WAVE
  TRACK 11 AUDIO
    TITLE "Whispers of Oxenfurt"
    PERFORMER "Mikolai Stroinski"
    INDEX 01 00:00:00
FILE "12. The Nightingale.wav" WAVE
  TRACK 12 AUDIO
    TITLE "The Nightingale"
    PERFORMER "Percival"
    INDEX 01 00:00:00
FILE "13. City of Intrigues.wav" WAVE
  TRACK 13 AUDIO
    TITLE "City of Intrigues"
    PERFORMER "Mikolai Stroinski"
    INDEX 01 00:00:00
FILE "14. Hunter's Path.wav" WAVE
  TRACK 14 AUDIO
    TITLE "Hunter's Path"
    PERFORMER "Marcin Przybylowicz"
    INDEX 01 00:00:00
FILE "15. Widow-maker.wav" WAVE
  TRACK 15 AUDIO
    TITLE "Widow-maker"
    PERFORMER "Mikolai Stroinski"
    INDEX 01 00:00:00
FILE "16. Kaer Morhen.wav" WAVE
  TRACK 16 AUDIO
    TITLE "Kaer Morhen"
    PERFORMER "Marcin Przybylowicz"
    INDEX 01 00:00:00
FILE "17. Eyes of the Wolf.wav" WAVE
  TRACK 17 AUDIO
    TITLE "Eyes of the Wolf"
    PERFORMER "Mikolai Stroinski"
    INDEX 01 00:00:00
FILE "18. Witch Hunters.wav" WAVE
  TRACK 18 AUDIO
    TITLE "Witch Hunters"
    PERFORMER "Mikolai Stroinski"
    INDEX 01 00:00:00
FILE "19. ...Steel for Humans.wav" WAVE
  TRACK 19 AUDIO
    TITLE "...Steel for Humans"
    PERFORMER "Percival & Marcin Przybylowicz"
    INDEX 01 00:00:00
FILE "20. Fate Calls.wav" WAVE
  TRACK 20 AUDIO
    TITLE "Fate Calls"
    PERFORMER "Mikolai Stroinski"
    INDEX 01 00:00:00
FILE "21. The Vagabond.wav" WAVE
  TRACK 21 AUDIO
    TITLE "The Vagabond"
    PERFORMER "Marcin Przybylowicz"
    INDEX 01 00:00:00
FILE "22. Cloak and Dagger.wav" WAVE
  TRACK 22 AUDIO
    TITLE "Cloak and Dagger"
    PERFORMER "Percival"
    INDEX 01 00:00:00
FILE "23. Forged in Fire.wav" WAVE
  TRACK 23 AUDIO
    TITLE "Forged in Fire"
    PERFORMER "Mikolai Stroinski"
    INDEX 01 00:00:00
FILE "24. Yes, I Do....wav" WAVE
  TRACK 24 AUDIO
    TITLE "Yes, I Do..."
    PERFORMER "Mikolai Stroinski"
    INDEX 01 00:00:00
FILE "25. Welcome, Imlerith.wav" WAVE
  TRACK 25 AUDIO
    TITLE "Welcome, Imlerith"
    PERFORMER "Mikolai Stroinski"
    INDEX 01 00:00:00
FILE "26. Drink Up, Theres More!.wav" WAVE
  TRACK 26 AUDIO
    TITLE "Drink Up, Theres More!"
    PERFORMER "Percival"
    INDEX 01 00:00:00
FILE "27. After the Storm.wav" WAVE
  TRACK 27 AUDIO
    TITLE "After the Storm"
    PERFORMER "Mikolai Stroinski"
    INDEX 01 00:00:00
FILE "28. Blood on the Cobblestones.wav" WAVE
  TRACK 28 AUDIO
    TITLE "Blood on the Cobblestones"
    PERFORMER "Mikolai Stroinski"
    INDEX 01 00:00:00
FILE "29. Farewell, Old Friend.wav" WAVE
  TRACK 29 AUDIO
    TITLE "Farewell, Old Friend"
    PERFORMER "Marcin Przybylowicz"
    INDEX 01 00:00:00
FILE "30. The Song of the SwordDancer.wav" WAVE
  TRACK 30 AUDIO
    TITLE "The Song of the SwordDancer"
    PERFORMER "Percival & Marcin Przybylowicz"
    INDEX 01 00:00:00
FILE "31. The Hunt is Coming.wav" WAVE
  TRACK 31 AUDIO
    TITLE "The Hunt is Coming"
    PERFORMER "Marcin Przybylowicz"
    INDEX 01 00:00:00
info [Профиль]  [ЛС] 

SkyIse

Пол: Пол:Муж

Стаж: 6 лет 8 месяцев

Сообщений: 278

Япония
Рейтинг

post 26-Май-2015 16:34 (спустя 3 дня) [-]0[+]

[Цитировать] 

это все треки, или "раскопают" еще?

P.S. трек лист офф оста есть уже?

_________________
info [Профиль]  [ЛС] 

Zelon1337

Стаж: 2 года 6 месяцев

Сообщений: 6

Рейтинг

post 26-Май-2015 17:22 (спустя 48 минут) [-]0[+]

[Цитировать] 

SkyIse писал(а):

это все треки, или "раскопают" еще?

P.S. трек лист офф оста есть уже?
Не все треки, офф OST уже есть, его давали за предзаказ и там 35 треков.
info [Профиль]  [ЛС] 
Показать сообщения:    
Ответить на тему

Текущее время: 07-Дек 01:56

Часовой пояс: GMT + 4



Вы не можете начинать темы
Вы не можете отвечать на сообщения
Вы не можете редактировать свои сообщения
Вы не можете удалять свои сообщения
Вы не можете голосовать в опросах
Вы не можете прикреплять файлы к сообщениям
Вы не можете скачивать файлы