Ошибка

Симпсоны / The Simpsons / Сезон 26 / Полный / Cерии 22 из 22 (Марк Керклэнд / Mark Kirkland ...) [2014 г., мультфильм, комедия, семейный, ..., WEB-DLRip] VO (КетчупТВ)

Ответить на тему
 
Автор Сообщение

Mr West

Пол: Пол:Муж

Стаж: 2 года 6 месяцев

Сообщений: 186

Россия
Рейтинг

post 21-Май-2015 00:06 0[+]

[Цитировать] 


Симпсоны / The Simpsons
«Just a product of society that's lost its good manners»


Оригинальное название: The Simpsons
Год выпуска: 2014 г.
Страна: США
Жанр: мультфильм, комедия, семейный, ...
Серии: 22 из 22 серий
Сезон: 26
Продолжительность: ~ 00:22:00 мин серия
Перевод: одноголосый закадровый
Cубтитры: отсутствуют
Режиссер: Марк Керклэнд / Mark Kirkland, Стивен Дин Мур / Steven Dean Moore, Джим Рирдон / Jim Reardon ...
В ролях: Дэн Кастелланета, Джули Кавнер, Нэнси Картрайт, Ярдли Смит, Гарри Ширер, Хэнк Азария, Памела Хейден, Тресс МакНилл, Карл Видерготт, Мэгги Росвэлл ...
Описание:
Симпсоны живут в вымышленном городе Спрингфилд, со своим обществом и историей. Гомер - отец семейства, который дает плохие советы и работает инспектором безопасности на атомной электростанции; Мардж - любящая мать и жена, старается сохранить спокойствие в семье; Барт - 10 летний хулиган; Лиза - философский 8-летний ребенок; и Мэгги - младенец, который общается посредством соски.
Качество видео: WEB-DLRip
Контейнер: AVI
Видео: MPEG-4 Visual at 1599 Кбит/сек, 720 x 400 (1.800) at 23.976 fps, 0.23 Бит/Пиксели
Аудио Rus: MPEG Audio at 192 Кбит/сек: 2 канала, 48,0 КГц |КетчупТВ|
  1. Клоун на свалке (Clown in the Dumps)
  2. Крушение Отношений (The Wreck of the Relationship)
  3. Моя Супер франшиза (Super Franchise Me)
  4. Домик ужасов на деревне 25 (Treehouse of Horror XXV)
  5. Противоположности A-Frack (Opposites A-Frack)
  6. Симпсорама (Simpsorama)
  7. Сверкавший и запутанный (Blazed and Confused)
  8. Covercraft (Covercraft)
  9. Я не буду дома на Рождество (I Won't Be Home for Christmas)
  10. Человек, пришедший стать ужином (The Man Who Came to Be Dinner)
  11. Новый друг Барта (Bart's New Friend)
  12. Маск, который упал на Землю (The Musk Who Fell To Earth)
  13. Шагая широко и высоко (Walking Big & Tall)
  14. Моя таксующая леди (My Fare Lady)
  15. Путеводитель для принцессы (The Princess Guide)
  16. Полиция неба (Sky Police)
  17. В ожидании Даффмэна (Waiting for Duffman)
  18. Следящая мама (Peeping Mom)
  19. Детки ссорятся (The Kids Are All Fight)
  20. Лети, дурачок (Let's Go Fly a Coot)
  21. Хулиган (Bull-E)
  22. Подвиг зубрилы (Mathlete's Feat)

 
Общее
Полное имя : E:\_Сериалы\_МультСериалы\Симпсоны\The Simpsons - Season 26 [КетчупТВ]\The Simpsons s26e01 ketchuptv 400p.avi
Формат : AVI
Формат/Информация : Audio Video Interleave
Размер файла : 273 Мбайт
Продолжительность : 21 м.
Общий поток : 1801 Кбит/сек
Программа кодирования : VirtualDubMod 1.5.10.2 (build 2540/release)
Библиотека кодирования : VirtualDubMod build 2540/release
Видео
Идентификатор : 0
Формат : MPEG-4 Visual
Профиль формата : Simple@L3
Параметр BVOP формата : Нет
Параметр QPel формата : Нет
Параметр GMC формата : Без точки перехода
Параметр матрицы формата : Default (H.263)
Идентификатор кодека : XVID
Идентификатор кодека/Подсказка : XviD
Продолжительность : 21 м.
Битрейт : 1599 Кбит/сек
Ширина : 720 пикселей
Высота : 400 пикселей
Соотношение сторон : 16:9
Соотношение сторон в оригинале : 16:9
Частота кадров : 23,976 кадра/сек
Цветовое пространство : YUV
Субдискретизация насыщенности : 4:2:0
Битовая глубина : 8 бит
Тип развёртки : Прогрессивная
Метод сжатия : С потерями
Бит/(Пиксели*Кадры) : 0.232
Размер потока : 242 Мбайт (89%)
Библиотека кодирования : XviD 63
Аудио
Идентификатор : 1
Формат : MPEG Audio
Версия формата : Version 1
Профиль формата : Layer 3
Режим : Joint stereo
Расширение режима : MS Stereo
Идентификатор кодека : 55
Идентификатор кодека/Подсказка : MP3
Продолжительность : 21 м.
Вид битрейта : Постоянный
Битрейт : 192 Кбит/сек
Каналы : 2 канала
Частота : 48,0 КГц
Метод сжатия : С потерями
Размер потока : 29,1 Мбайт (11%)
Выравнивание : Разделение по промежуткам
Продолжительность промежутка : 42 мс. (1,00 видеокадр)
Время предзагрузки промежутка : 500 мс.
Библиотека кодирования : LAME3.97
Скриншоты:
http://i65.fastpic.ru/big/2014/1116/5d/70651ac25bd4fa7a54500e0c5f38505d.png http://i64.fastpic.ru/big/2014/1116/fe/9a39ad0934a5e49993edc5295f7338fe.png http://i67.fastpic.ru/big/2014/1116/50/282f81bc1cc489ca995b1837cf1d6250.png http://i67.fastpic.ru/big/2014/1116/71/2d933ea653be6730e90e44ccc7615271.png http://i68.fastpic.ru/big/2014/1116/30/3d92d256f7e843516858f5578c2df730.png 



Добавлена двадцать вторая, заключительная, серия двадцать шестого сезона
Симпсоны 27 сезон - ОСЕНЬ 2015
info [Профиль]  [ЛС] 
Показать сообщения:    
Ответить на тему

Текущее время: 27-Апр 15:05

Часовой пояс: GMT + 4



Вы не можете начинать темы
Вы не можете отвечать на сообщения
Вы не можете редактировать свои сообщения
Вы не можете удалять свои сообщения
Вы не можете голосовать в опросах
Вы не можете прикреплять файлы к сообщениям
Вы не можете скачивать файлы