Ошибка

Странная магия / Strange Magic (Гари Ридстром) [2015, мультфильм, мюзикл, фэнтези, семейный, WEB-DLRip]

Ответить на тему
 
Автор Сообщение

BZzz

Пол: Пол:Муж

Стаж: 5 лет 1 месяц

Сообщений: 3647

Россия
Рейтинг

post 19-Май-2015 02:24 1[+]

[Цитировать] 

Странная магия / Strange Magic
«For ages two worlds lived divided: the magical and the mysterious. Until someone crossed the line...»




Год выпуска: 2015
Страна: США
Жанр: мультфильм, мюзикл, фэнтези, семейный
Продолжительность: 01:39:38
Перевод: Профессиональный (дублированный)[цифровая лицензия iTunes]
Cубтитры: русские вшитые на песни

Режиссер: Гари Ридстром

В ролях: Алан Камминг☆Alan Cumming (Bog King, озвучка), Эван Рэйчел Вуд☆Evan Rachel Wood (Marianne, озвучка), Элайджа Келли☆Elijah Kelley (Sunny, озвучка), Мередит Энн Булл☆Meredith Anne Bull (Dawn, озвучка), Сэм Палладио☆Sam Palladio (Roland, озвучка), Кристин Ченоуэт☆Kristin Chenoweth (Sugar Plum Fairy, озвучка), Майя Рудольф☆Maya Rudolph (Griselda, озвучка), Петер Стормаре☆Peter Stormare (Thang, озвучка), Llou Johnson (Pare, озвучка), Бренда Чепмен☆Brenda Chapman (дополнительные голоса, озвучка, в титрах не указана)


Описание: Музыкальная сказка о гоблинах, эльфах, феях и бесах, рассказанная под мелодии популярных песен последних шести десятилетий.

Сборы в США: $12 429 583
Рейтинг MPAA: Рекомендуется присутствие родителей



Качество: WEB-DLRip
Формат: AVI
Видео кодек: XviD
Аудио кодек: AC3
Видео: 720x304 (2.35:1), 23.976 fps, XviD, 1 571 Kbps
Аудио #1: AC3, 384 Kbps, 48.0 KHz, 6 ch
General
Complete name : Strannaya.Magiya.2015.D.WEB-DLRip.avi
Format : AVI
Format/Info : Audio Video Interleave
File size : 1.37 GiB
Duration : 1h 39mn
Overall bit rate : 1 963 Kbps
Writing application : VirtualDubMod 1.5.10.2 (build 2540/release)
Writing library : VirtualDubMod build 2540/release

Video
ID : 0
Format : MPEG-4 Visual
Format profile : Advanced Simple@L5
Format settings, BVOP : 2
Format settings, QPel : No
Format settings, GMC : No warppoints
Format settings, Matrix : Default (MPEG)
Codec ID : XVID
Codec ID/Hint : XviD
Duration : 1h 39mn
Bit rate : 1 571 Kbps
Width : 720 pixels
Height : 304 pixels
Display aspect ratio : 2.35:1
Frame rate : 23.976 fps
Color space : YUV
Chroma subsampling : 4:2:0
Bit depth : 8 bits
Scan type : Progressive
Compression mode : Lossy
Bits/(Pixel*Frame) : 0.299
Stream size : 1.09 GiB (80%)
Writing library : XviD 1.2.1 (UTC 2008-12-04)

Audio
ID : 1
Format : AC-3
Format/Info : Audio Coding 3
Mode extension : CM (complete main)
Format settings, Endianness : Big
Codec ID : 2000
Duration : 1h 39mn
Bit rate mode : Constant
Bit rate : 384 Kbps
Channel(s) : 6 channels
Channel positions : Front: L C R, Side: L R, LFE
Sampling rate : 48.0 KHz
Bit depth : 16 bits
Compression mode : Lossy
Stream size : 273 MiB (20%)
Alignment : Split accross interleaves
Interleave, duration : 42 ms (1.00 video frame)
Interleave, preload duration : 500 ms
info [Профиль]  [ЛС] 

post 05-Фев-2016 01:10 (спустя 8 месяцев 16 дней) [-]0[+]

Топик был перенесен из форума Новинки 2014-2015 (Rips) в форум Зарубежные полнометражные мультфильмы

LyaKich
 
Показать сообщения:    
Ответить на тему

Текущее время: 06-Дек 14:19

Часовой пояс: GMT + 4



Вы не можете начинать темы
Вы не можете отвечать на сообщения
Вы не можете редактировать свои сообщения
Вы не можете удалять свои сообщения
Вы не можете голосовать в опросах
Вы не можете прикреплять файлы к сообщениям
Вы не можете скачивать файлы