Ошибка

Губка Боб в 3D / The SpongeBob Movie: Sponge Out of Water (Пол Тиббит) [2015, мультфильм, комедия, приключения, семейный, BDRip 1080p]

Ответить на тему
 
Автор Сообщение

BZzz

Пол: Пол:Муж

Стаж: 5 лет 1 месяц

Сообщений: 3647

Россия
Рейтинг

post 19-Май-2015 00:43 0[+]

[Цитировать] 

Губка Боб в 3D / The SpongeBob Movie: Sponge Out of Water
«Всё квадратное станет явным»




Год выпуска: 2015
Страна: США
Жанр: мультфильм, комедия, приключения, семейный
Продолжительность: 01:32:34
Перевод: Профессиональный (дублированный)[цифровая лицензия iTunes]

Режиссер: Пол Тиббит

В ролях: Антонио Бандерас☆Antonio Banderas (Burger Beard), Том Кенни☆Tom Kenny (SpongeBob / Gary / Agreeable Mob Member / Waffle, озвучка), Эрик Бауза☆Eric Bauza (Seagull, озвучка), Тим Конуэй☆Tim Conway (Seagull, озвучка), Эдди Дизен☆Eddie Deezen (Seagull, озвучка), Роб Полсен☆Rob Paulsen (Seagull, озвучка), Кевин Майкл Ричардсон☆Kevin Michael Richardson (Seagull, озвучка), Эйприл Стюарт☆April Stewart (Seagull, озвучка), Кри Саммер☆Cree Summer (Seagull, озвучка), Билли Уэст☆Billy West (Seagull, озвучка)

Описание: Всемирный любимчик со дна океана Губка Боб Квадратные Штаны должен спасти свой глубоководный мир, но для этого ему и его друзьям придется выбраться на сушу и оказаться в нашем.

Бюджет: $74 000 000
Сборы в США: $162 688 000
Сборы в мире: + $148 600 000 = $311 288 000
Сборы в России: $11 057 229
Рейтинг MPAA: Рекомендуется присутствие родителей



Качество: BDRip 1080p
Формат: MKV
Видео кодек: AVC
Аудио кодек: AC3
Видео: 1920x1080 (16:9), 23.976 fps, High@L4.1, 5 245 Kbps
Аудио #1: Rus AC3, 384 Kbps, 48.0 KHz, 6 ch
Аудио #2: Eng DTS, 1 509 Kbps, 48.0 KHz, 6 ch

» Фильм посвящен памяти Эрнеста Боргнайна.

» В одном из трейлеров фильма можно заметить бывшего гитариста группы Guns N’ Roses – Слэша. Однако в самом фильме его нет.
Format : Matroska
Format version : Version 2
File size : 4.62 GiB
Duration : 1h 32mn
Overall bit rate : 7 136 Kbps
Encoded date : UTC 2015-05-20 04:07:14
Writing application : mkvmerge v7.9.0 ('Birds') 64bit
Writing library : libebml v1.3.1 + libmatroska v1.4.2
DURATION : 01:32:36.608000000
NUMBER_OF_FRAMES : 173644
NUMBER_OF_BYTES : 266717184
_STATISTICS_WRITING_APP : mkvmerge v7.9.0 ('Birds') 64bit
_STATISTICS_WRITING_DATE_UTC : 2015-05-20 04:07:14
_STATISTICS_TAGS : BPS DURATION NUMBER_OF_FRAMES NUMBER_OF_BYTES

Video
ID : 1
Format : AVC
Format/Info : Advanced Video Codec
Format profile : High@L4.1
Format settings, CABAC : Yes
Format settings, ReFrames : 4 frames
Codec ID : V_MPEG4/ISO/AVC
Duration : 1h 32mn
Bit rate : 5 245 Kbps
Width : 1 920 pixels
Height : 1 080 pixels
Display aspect ratio : 16:9
Frame rate mode : Constant
Frame rate : 23.976 fps
Color space : YUV
Chroma subsampling : 4:2:0
Bit depth : 8 bits
Scan type : Progressive
Bits/(Pixel*Frame) : 0.105
Stream size : 3.30 GiB (71%)
Writing library : x264 core 144 r2525 40bb568
Encoding settings : cabac=1 / ref=4 / deblock=1:0:0 / analyse=0x3:0x133 / me=umh / subme=7 / psy=1 / psy_rd=1.00:0.00 / mixed_ref=1 / me_range=16 / chroma_me=1 / trellis=1 / 8x8dct=1 / cqm=0 / deadzone=21,11 / fast_pskip=0 / chroma_qp_offset=-2 / threads=60 / lookahead_threads=8 / sliced_threads=0 / nr=0 / decimate=1 / interlaced=0 / bluray_compat=0 / constrained_intra=0 / bframes=3 / b_pyramid=2 / b_adapt=1 / b_bias=0 / direct=1 / weightb=1 / open_gop=0 / weightp=2 / keyint=250 / keyint_min=23 / scenecut=40 / intra_refresh=0 / rc_lookahead=40 / rc=2pass / mbtree=1 / bitrate=5245 / ratetol=1.0 / qcomp=0.60 / qpmin=0 / qpmax=69 / qpstep=4 / cplxblur=20.0 / qblur=0.5 / ip_ratio=1.40 / aq=1:1.00
Language : English
Default : Yes
Forced : No
DURATION : 01:32:34.433000000
NUMBER_OF_FRAMES : 133173
NUMBER_OF_BYTES : 3640486300
_STATISTICS_WRITING_APP : mkvmerge v7.9.0 ('Birds') 64bit
_STATISTICS_WRITING_DATE_UTC : 2015-05-20 04:07:14
_STATISTICS_TAGS : BPS DURATION NUMBER_OF_FRAMES NUMBER_OF_BYTES

Audio #1
ID : 2
Format : AC-3
Format/Info : Audio Coding 3
Mode extension : CM (complete main)
Format settings, Endianness : Big
Codec ID : A_AC3
Duration : 1h 32mn
Bit rate mode : Constant
Bit rate : 384 Kbps
Channel(s) : 6 channels
Channel positions : Front: L C R, Side: L R, LFE
Sampling rate : 48.0 KHz
Bit depth : 16 bits
Compression mode : Lossy
Stream size : 254 MiB (5%)
Language : Russian
Default : Yes
Forced : No

Audio #2
ID : 3
Format : DTS
Format/Info : Digital Theater Systems
Mode : 16
Format settings, Endianness : Big
Codec ID : A_DTS
Duration : 1h 32mn
Bit rate mode : Constant
Bit rate : 1 509 Kbps
Channel(s) : 6 channels
Channel positions : Front: L C R, Side: L R, LFE
Sampling rate : 48.0 KHz
Bit depth : 24 bits
Compression mode : Lossy
Stream size : 1 000 MiB (21%)
Language : English
Default : No
Forced : No

Menu
00:00:00.000 : en:00:00:00.000
00:03:40.387 : en:00:03:40.387
00:06:22.173 : en:00:06:22.173
00:12:29.999 : en:00:12:29.999
00:18:21.600 : en:00:18:21.600
00:22:52.079 : en:00:22:52.079
00:30:14.688 : en:00:30:14.688
00:35:37.886 : en:00:35:37.886
00:39:50.972 : en:00:39:50.972
00:43:13.424 : en:00:43:13.424
00:50:54.510 : en:00:50:54.510
00:55:16.396 : en:00:55:16.396
01:00:03.099 : en:01:00:03.099
01:04:19.355 : en:01:04:19.355
01:10:16.587 : en:01:10:16.587
01:16:20.367 : en:01:16:20.367
01:20:29.491 : en:01:20:29.491
01:23:30.839 : en:01:23:30.839
info [Профиль]  [ЛС] 

dirol8888

Пол: Пол:Муж

Стаж: 5 лет 5 месяцев

Сообщений: 48

Рейтинг

post 19-Май-2015 18:40 (спустя 17 часов) [-]1[+]

[Цитировать] 

Ждал озвучки, и вот ноконец-то, она вышла. Ещё вчера ночью посмотрел.
Много расписывать не буду, за меня это сделали на КиноПоиск, но скажу лишь, что данная картина меня огорчила, хоть я и люблю подобные мультики(особенно утром завтракать, под губкубоба, идущему по телевизору) На мой взгляд, первая кинолента про СпанчБоба была намного лучше
info [Профиль]  [ЛС] 

boshku

Пол: Пол:Муж

Стаж: 2 года 7 месяцев

Сообщений: 5

Рейтинг

post 19-Май-2015 18:54 (спустя 14 минут) [-]0[+]

[Цитировать] 

А субтитры где можно найти? Дубляж не очень. Понял это в самом начале, где переозвученные чайки пытались петь песенку про Боба.
info [Профиль]  [ЛС] 

BZzz

Пол: Пол:Муж

Стаж: 5 лет 1 месяц

Сообщений: 3647

Россия
Рейтинг

post 20-Май-2015 12:28 (спустя 17 часов) [-]0[+]

[Цитировать] 

 !  BZzz:
...BDRip 1080p

_________________
info [Профиль]  [ЛС] 

boshku

Пол: Пол:Муж

Стаж: 2 года 7 месяцев

Сообщений: 5

Рейтинг

post 20-Май-2015 18:26 (спустя 5 часов) [-]0[+]

[Цитировать] 

BZzz друг, выложи позязя субтитры.
info [Профиль]  [ЛС] 

AlienHouse6032

Пол: Пол:Муж

Стаж: 3 года 7 месяцев

Сообщений: 1116

Предупреждений: 4

Канада
Рейтинг

post 20-Май-2015 19:22 (спустя 55 минут) [-]0[+]

[Цитировать] 

муть какая то получилось и не мульт и не кино ...
info [Профиль]  [ЛС] 

tayanov

Стаж: 3 года 6 месяцев

Сообщений: 29

Россия
Рейтинг

post 20-Май-2015 23:11 (спустя 3 часа) [-]0[+]

[Цитировать] 

Позорище, ждал эмоций как от первой части, а ничего не получил. Любая серия на порядок (а это в 10 раз) лучше.
info [Профиль]  [ЛС] 

post 05-Фев-2016 23:55 (спустя 8 месяцев 16 дней) [-]0[+]

Топик был перенесен из форума Новинки 2014-2015 (Web-DL, DVD, HD DVD, Blu-ray, HD Rips) в форум Мультфильмы (HD Video)

LyaKich
 
Показать сообщения:    
Ответить на тему

Текущее время: 08-Дек 15:53

Часовой пояс: GMT + 4



Вы не можете начинать темы
Вы не можете отвечать на сообщения
Вы не можете редактировать свои сообщения
Вы не можете удалять свои сообщения
Вы не можете голосовать в опросах
Вы не можете прикреплять файлы к сообщениям
Вы не можете скачивать файлы