Ошибка

Губка Боб в 3D / The SpongeBob Movie: Sponge Out of Water (Пол Тиббит) [2015, мультфильм, комедия, приключения, семейный, HDRip]

Ответить на тему
 
Автор Сообщение

BZzz

Пол: Пол:Муж

Стаж: 5 лет 1 месяц

Сообщений: 3647

Россия
Рейтинг

post 18-Май-2015 23:47 1[+]

[Цитировать] 

Губка Боб в 3D / The SpongeBob Movie: Sponge Out of Water
«Всё квадратное станет явным»




Год выпуска: 2015
Страна: США
Жанр: мультфильм, комедия, приключения, семейный
Продолжительность: 01:32:34
Перевод: Профессиональный (дублированный)[цифровая лицензия iTunes]

Режиссер: Пол Тиббит

В ролях: Антонио Бандерас☆Antonio Banderas (Burger Beard), Том Кенни☆Tom Kenny (SpongeBob / Gary / Agreeable Mob Member / Waffle, озвучка), Эрик Бауза☆Eric Bauza (Seagull, озвучка), Тим Конуэй☆Tim Conway (Seagull, озвучка), Эдди Дизен☆Eddie Deezen (Seagull, озвучка), Роб Полсен☆Rob Paulsen (Seagull, озвучка), Кевин Майкл Ричардсон☆Kevin Michael Richardson (Seagull, озвучка), Эйприл Стюарт☆April Stewart (Seagull, озвучка), Кри Саммер☆Cree Summer (Seagull, озвучка), Билли Уэст☆Billy West (Seagull, озвучка)

Описание: Всемирный любимчик со дна океана Губка Боб Квадратные Штаны должен спасти свой глубоководный мир, но для этого ему и его друзьям придется выбраться на сушу и оказаться в нашем.

Бюджет: $74 000 000
Сборы в США: $162 688 000
Сборы в мире: + $148 600 000 = $311 288 000
Сборы в России: $11 057 229
Рейтинг MPAA: Рекомендуется присутствие родителей



Качество: HDRip
Формат: AVI
Видео кодек: XviD
Аудио кодек: AC3
Видео: 720x400 (16:9), 23.976 fps, XviD, 1 724 Kbps
Аудио #1: AC3, 384 Kbps, 48.0 KHz, 6 ch

» Фильм посвящен памяти Эрнеста Боргнайна.

» В одном из трейлеров фильма можно заметить бывшего гитариста группы Guns N’ Roses – Слэша. Однако в самом фильме его нет.
Format : AVI
Format/Info : Audio Video Interleave
File size : 1.37 GiB
Duration : 1h 32mn
Overall bit rate : 2 118 Kbps
Writing application : VirtualDubMod 1.5.10.2 (build 2540/release)
Writing library : VirtualDubMod build 2540/release

Video
ID : 0
Format : MPEG-4 Visual
Format profile : Advanced Simple@L5
Format settings, BVOP : 2
Format settings, QPel : No
Format settings, GMC : No warppoints
Format settings, Matrix : Default (MPEG)
Codec ID : XVID
Codec ID/Hint : XviD
Duration : 1h 32mn
Bit rate : 1 724 Kbps
Width : 720 pixels
Height : 400 pixels
Display aspect ratio : 16:9
Frame rate : 23.976 fps
Color space : YUV
Chroma subsampling : 4:2:0
Bit depth : 8 bits
Scan type : Progressive
Compression mode : Lossy
Bits/(Pixel*Frame) : 0.250
Stream size : 1.11 GiB (81%)
Writing library : XviD 1.2.1 (UTC 2008-12-04)

Audio
ID : 1
Format : AC-3
Format/Info : Audio Coding 3
Mode extension : CM (complete main)
Format settings, Endianness : Big
Codec ID : 2000
Duration : 1h 32mn
Bit rate mode : Constant
Bit rate : 384 Kbps
Channel(s) : 6 channels
Channel positions : Front: L C R, Side: L R, LFE
Sampling rate : 48.0 KHz
Bit depth : 16 bits
Compression mode : Lossy
Stream size : 254 MiB (18%)
Alignment : Split accross interleaves
Interleave, duration : 42 ms (1.00 video frame)
Interleave, preload duration : 500 ms
info [Профиль]  [ЛС] 

BZzz

Пол: Пол:Муж

Стаж: 5 лет 1 месяц

Сообщений: 3647

Россия
Рейтинг

post 20-Май-2015 12:28 (спустя 1 день 12 часов) [-]0[+]

[Цитировать] 

 !  BZzz:
...HDRip

_________________
info [Профиль]  [ЛС] 

post 05-Фев-2016 01:10 (спустя 8 месяцев 15 дней) [-]0[+]

Топик был перенесен из форума Новинки 2014-2015 (Rips) в форум Зарубежные полнометражные мультфильмы

LyaKich
 
Показать сообщения:    
Ответить на тему

Текущее время: 09-Дек 09:55

Часовой пояс: GMT + 4



Вы не можете начинать темы
Вы не можете отвечать на сообщения
Вы не можете редактировать свои сообщения
Вы не можете удалять свои сообщения
Вы не можете голосовать в опросах
Вы не можете прикреплять файлы к сообщениям
Вы не можете скачивать файлы