Ошибка

Чародей равновесия. Тайна Сухаревой башни (Сергей Серёгин) [2015 г., Мультфильм, фэнтези, история, WEB-DLRip-AVC]

Ответить на тему
 
Автор Сообщение

Syrax

Пол: Пол:Муж

Стаж: 8 лет 3 месяца

Сообщений: 545

Россия
Рейтинг

post 18-Май-2015 00:04 1[+]

[Цитировать] 

Чародей равновесия. Тайна Сухаревой башни

Год выпуска: 2015
Страна: Россия, Мастер Фильм
Жанр: Мультфильм, фэнтези, история
Продолжительность: 01:13:24
Перевод: Не требуется

Режиссер:
  • Сергей Серёгин


В ролях:
  • Прохор Чеховской, Ольга Шорохова, Диомид Виноградов, Александр Тараньжин, Станислав Дужников, Вадим Демчог, Алла Санникова, Сергей Габриэлян, Алексей Емцов, Алексей Иващенко


Описание: Россия, конец 17 века. Царь Петр Первый издает указ о праздновании Нового года. Ко двору царя под видом ученого-механика приезжает Магистр тёмной магии, который стремится попасть в Волшебные Миры и вернуть свою магическую силу. Врата Волшебных миров находятся в Москве в Сухаревой башне. Их охраняет граф Яков Брюс — знаменитый сподвижник царя Петра, ученый, колдун и Чародей Равновесия. Ученик Брюса, подросток Петя, случайно узнает о коварных планах Магистра и спешит к Сухаревой башне, чтобы предупредить дочь Брюса Маргариту об опасности. Дети ссорятся и нечаянно разрывают старинный манускрипт, в котором заключена магическая сила Брюса. Для восстановления манускрипта дети отправляются в опасное приключение в Волшебные миры.


Качество: WEB-DLRip-AVC
Формат: MKV
Видео кодек: H.264
Аудио кодек: AC3
Видео: MPEG-4 AVC, 2500 Кбит/с, 1024x576
Аудио: АС3, 6 ch, 384 Кбит/с
F:\Downloads\Torent\Char0dey.2015.O.WEB-DL-AVC.mkv
General
Unique ID : 200624712291791022279661156359332094403 (0x96EEEA025F0EA377BDFDCADB71B6E1C3)
Complete name : F:\Downloads\Torent\Char0dey.2015.O.WEB-DL-AVC.mkv
Format : Matroska
Format version : Version 4 / Version 2
File size : 1.45 GiB
Duration : 1h 13mn
Overall bit rate : 2 820 Kbps
Encoded date : UTC 2010-02-22 21:41:31
Writing application : mkvmerge v5.9.0 ('On The Loose') built on Dec 9 2012 15:37:01
Writing library : libebml v1.3.0 + libmatroska v1.4.0
Video #1
ID : 1
Format : AVC
Format/Info : Advanced Video Codec
Format profile : High@L1.3
Format settings, CABAC : No
Format settings, ReFrames : 1 frame
Format settings, GOP : M=1, N=12
Muxing mode : Header stripping
Codec ID : V_MPEG4/ISO/AVC
Duration : 1h 13mn
Bit rate : 2 444 Kbps
Width : 1 024 pixels
Height : 576 pixels
Display aspect ratio : 16:9
Frame rate mode : Constant
Frame rate : 25.000 fps
Color space : YUV
Chroma subsampling : 4:2:0
Bit depth : 8 bits
Scan type : Progressive
Bits/(Pixel*Frame) : 0.166
Stream size : 1.25 GiB (87%)
Language : English
Default : Yes
Forced : No
Audio #2
ID : 2
Format : AC-3
Format/Info : Audio Coding 3
Mode extension : CM (complete main)
Format settings, Endianness : Big
Muxing mode : Header stripping
Codec ID : A_AC3
Duration : 1h 13mn
Bit rate mode : Constant
Bit rate : 320 Kbps
Channel(s) : 6 channels
Channel positions : Front: L C R, Side: L R, LFE
Sampling rate : 48.0 KHz
Bit depth : 16 bits
Compression mode : Lossy
Stream size : 168 MiB (11%)
Language : Russian
Default : Yes
Forced : No
Menu
00:00:00.000 : en:глава 1
00:09:53.000 : en:глава 2
00:20:12.000 : en:глава 3
00:30:45.000 : en:глава 4
00:40:29.000 : en:глава 5
00:50:11.000 : en:глава 6
01:00:24.000 : en:глава 7
01:10:38.000 : en:глава 8
info [Профиль]  [ЛС] 

L

Пол: Пол:Муж

Стаж: 7 лет 3 месяца

Сообщений: 11815

Украина
Рейтинг

post 18-Май-2015 00:08 (спустя 3 минуты) [-]0[+]

[Цитировать] 

Syrax писал(а):

WEB-DLRip-AVC
Поправь качество.
Добавь Медиаинфо.
Скриншоты должны быть в png.
info [Профиль]  [ЛС] 

Syrax

Пол: Пол:Муж

Стаж: 8 лет 3 месяца

Сообщений: 545

Россия
Рейтинг

post 18-Май-2015 00:52 (спустя 44 минуты) [-]0[+]

[Цитировать] 

Готово
info [Профиль]  [ЛС] 

DeusNeko

Пол: Пол:Муж

Стаж: 7 лет 9 месяцев

Сообщений: 1381

Предупреждений: 1

Россия
Рейтинг

post 18-Май-2015 00:56 (спустя 3 минуты) [-]6[+]

[Цитировать] 


_________________
Matrix Mini-I Pro -> Questyle CMA800R -> Sennheiser HD 280/PSB M4U 1/Beyerdynamic DT 770 Pro/Beyerdynamic T90/HiFiMAN HE-400
info [Профиль]  [ЛС] 

nomen12

Стаж: 8 лет 3 месяца

Сообщений: 13

Рейтинг

post 18-Май-2015 19:59 (спустя 19 часов) [-]-7[+]

[Цитировать] 

Отличный сериал для детей, единственный качественный отечественный продукт, жаль серий не много, в отличии от бестолковой маши и подобного мусора. Надеюсь фильм тоже хорош.
info [Профиль]  [ЛС] 

vondoom

Пол: Пол:Муж

Стаж: 7 лет 4 месяца

Сообщений: 47

Рейтинг

post 18-Май-2015 21:36 (спустя 1 час 37 минут) [-]0[+]

[Цитировать] 

nomen12 писал(а):

Отличный сериал для детей
Какой сериал? Этот мульт в кинотеатре показывали.
info [Профиль]  [ЛС] 

youtoome123

Стаж: 7 лет 4 месяца

Сообщений: 303

Рейтинг

post 18-Май-2015 22:36 (спустя 1 час) [-]1[+]

[Цитировать] 

Какая то отбитая тян.
info [Профиль]  [ЛС] 

kurkah

Пол: Пол:Муж

Стаж: 7 лет 3 месяца

Сообщений: 112

Россия
Рейтинг

post 18-Май-2015 23:15 (спустя 39 минут) [-]0[+]

[Цитировать] 

Дизайн ГГ похож на персонажей из клипа Пилота - Будь джедаем
info [Профиль]  [ЛС] 

Разбойник

Пол: Пол:Муж

Стаж: 8 лет

Сообщений: 133

Россия
Рейтинг

post 18-Май-2015 23:36 (спустя 20 минут) [-]-4[+]

[Цитировать] 

Такой офигенный концепт был, и такой слив на выходе.
info [Профиль]  [ЛС] 

nomen12

Стаж: 8 лет 3 месяца

Сообщений: 13

Рейтинг

post 19-Май-2015 07:46 (спустя 8 часов) [-]0[+]

[Цитировать] 

vondoom писал(а):

nomen12 писал(а):

Отличный сериал для детей
Какой сериал? Этот мульт в кинотеатре показывали.
самый обыкновенный сериал есть, погуггли вообщем.
info [Профиль]  [ЛС] 

dimok73

Пол: Пол:Муж

Стаж: 5 лет 5 месяцев

Сообщений: 26

Россия
Рейтинг

post 19-Май-2015 09:29 (спустя 1 час 43 минуты) [-]0[+]

[Цитировать] 

kurkah писал(а):

Дизайн ГГ похож на персонажей из клипа Пилота - Будь джедаем
Мне рисовка больше напоминает французский сериал Факфу
info [Профиль]  [ЛС] 

Deadmanrus

Стаж: 7 лет 10 месяцев

Сообщений: 58

Рейтинг

post 24-Май-2015 13:57 (спустя 5 дней) [-]4[+]

[Цитировать] 

не знаю почему, но меня пугает плакат...
info [Профиль]  [ЛС] 

wils3

Пол: Пол:Муж

Стаж: 7 лет 4 месяца

Сообщений: 87

Россия
Рейтинг

post 30-Май-2015 19:46 (спустя 6 дней) [-]0[+]

[Цитировать] 

на 3-ем скрине призрачный гонщик
info [Профиль]  [ЛС] 

post 05-Фев-2016 01:16 (спустя 8 месяцев 5 дней) [-]0[+]

Топик был перенесен из форума Новинки 2014-2015 (Rips) в форум Отечественные полнометражные мультфильмы

LyaKich
 
Показать сообщения:    
Ответить на тему

Текущее время: 22-Июл 06:54

Часовой пояс: GMT + 4



Вы не можете начинать темы
Вы не можете отвечать на сообщения
Вы не можете редактировать свои сообщения
Вы не можете удалять свои сообщения
Вы не можете голосовать в опросах
Вы не можете прикреплять файлы к сообщениям
Вы не можете скачивать файлы