Ошибка

Барашек Шон / Shaun the Sheep Movie (Марк Бертон) [2015, мультфильм, комедия, приключения, семейный, WEB-DL 1080p]

Ответить на тему
 
Автор Сообщение

BZzz

Пол: Пол:Муж

Стаж: 5 лет 1 месяц

Сообщений: 3647

Россия
Рейтинг

post 30-Апр-2015 02:47 1[+]

[Цитировать] 

Барашек Шон / Shaun the Sheep Movie
«Бе-е-е-ежим в кино!»




Год выпуска: 2015
Страна: Великобритания , Франция
Жанр: мультфильм, комедия, приключения, семейный
Продолжительность: 01:21:33
Перевод: Профессиональный (дублированный)[цифровая лицензия iTunes]

Режиссер: Марк Бертон

В ролях: Джастин Флетчер (Justin Fletcher), Джон Шпаркс (John Sparkes), Омид Джалили (Omid Djalili), Ричард Веббер (Richard Webber), Кейт Харбор (Kate Harbour), Тим Хэндс (Tim Hands), Энди Найман (Andy Nyman), Саймон Гринхолл (Simon Greenall)

Описание: Мирная жизнь маленькой овцефермы оказывается под угрозой, когда в результате очередной проказы неутомимого Барашка Шона хозяин фермы попадает в большой город. Вдоволь навеселившись полной свободой и безнаказанностью, Шон и остальное стадо барашков начинают волноваться за Фермера и решают отправиться на его спасение. Замаскировавшись под людей, они едут в большой город, где их ждет самое весёлое и эпическое приключение всей жизни.

Сборы в мире: $54 000 000
Сборы в России: $1 105 602



Качество: WEB-DL 1080p
Формат: MKV
Видео кодек: AVC
Аудио кодек: AC3
Видео: 1918x1036 (1.851:1), 25.000 fps, High@L4.0, 5 131 Kbps
Аудио #1: AC3, 384 Kbps, 48.0 KHz, 6 ch
> Ресторан, где овцы пытаются слиться с посетителями, называется «Le Chou Brule", что означает «Сгоревшая капуста».

> Над фильмом работали двадцать аниматоров, каждый из которых создавал по 2 секунды видеоматериала в день.

> Книга, которую читает человек в туалете, это учебное пособие по тренировке собак из сериала «Барашек Шон» (2007) (24-й эпизод второго сезона).

Внимание! Дальнейший список фактов о мультфильме содержит спойлеры. Будьте осторожны.

> Сразу после того, как овцы спасают фермера от парикмахеров, они поворачивают за угол, чтобы бежать по переулку. В этот момент на стене можно заметить плакат «John Cooper Clarke and The Fall».
General
Complete name : Barashek.Shon.2015.D.WEB-DL.1080p.mkv
Format : Matroska
File size : 3.21 GiB
Duration : 1h 21mn
Overall bit rate : 5 627 Kbps
Encoded date : UTC 2015-04-29 21:08:14
Writing application : mkvmerge v6.9.1 ('Blue Panther') 64bit built on Apr 18 2014 18:23:38
Writing library : libebml v1.3.0 + libmatroska v1.4.1

Video
ID : 1
Format : AVC
Format/Info : Advanced Video Codec
Format profile : High@L4.0
Format settings, CABAC : Yes
Format settings, ReFrames : 4 frames
Muxing mode : Container profile=Unknown@4.0
Codec ID : V_MPEG4/ISO/AVC
Duration : 1h 21mn
Bit rate : 5 131 Kbps
Width : 1 918 pixels
Height : 1 036 pixels
Display aspect ratio : 1.851
Frame rate : 25.000 fps
Color space : YUV
Chroma subsampling : 4:2:0
Bit depth : 8 bits
Scan type : Progressive
Bits/(Pixel*Frame) : 0.103
Stream size : 2.92 GiB (91%)
Color primaries : BT.709-5, BT.1361, IEC 61966-2-4, SMPTE RP177
Transfer characteristics : BT.709-5, BT.1361
Matrix coefficients : BT.709-5, BT.1361, IEC 61966-2-4 709, SMPTE RP177

Audio
ID : 2
Format : AC-3
Format/Info : Audio Coding 3
Mode extension : CM (complete main)
Codec ID : A_AC3
Duration : 1h 21mn
Bit rate mode : Constant
Bit rate : 384 Kbps
Channel(s) : 6 channels
Channel positions : Front: L C R, Side: L R, LFE
Sampling rate : 48.0 KHz
Bit depth : 16 bits
Stream size : 224 MiB (7%)
Language : Russian

Menu
00:00:00.000 : en:Глава 1
00:02:08.000 : en:Глава 2
00:05:36.000 : en:Глава 3
00:09:06.000 : en:Глава 4
00:13:18.000 : en:Глава 5
00:16:53.000 : en:Глава 6
00:20:10.000 : en:Глава 7
00:24:53.000 : en:Глава 8
00:27:29.000 : en:Глава 9
00:30:50.000 : en:Глава 10
00:35:38.000 : en:Глава 11
00:38:29.000 : en:Глава 12
00:42:46.000 : en:Глава 13
00:47:39.000 : en:Глава 14
00:52:27.000 : en:Глава 15
00:56:54.000 : en:Глава 16
01:00:54.000 : en:Глава 17
01:05:25.000 : en:Глава 18
01:08:47.000 : en:Глава 19
01:12:37.000 : en:Глава 20
info [Профиль]  [ЛС] 

vaiteri

Пол: Пол:Муж

Стаж: 6 лет 3 месяца

Сообщений: 38

Россия
Рейтинг

post 30-Апр-2015 16:18 (спустя 13 часов) [-]1[+]

[Цитировать] 

Да да да! Мы давно дружно его ждем! Наконец-то!!! kolob_196
info [Профиль]  [ЛС] 

VadymVL

Пол: Пол:Муж

Стаж: 5 лет 5 месяцев

Сообщений: 12

Украина
Рейтинг

post 01-Май-2015 23:43 (спустя 1 день 7 часов) [-]0[+]

[Цитировать] 

Спасибо огромное! Несмотря на то, что фильм вышел "премьера (мир) 24 января 2015", нигде его найти не мог.

P.S. Что очень порадовало, так это полная локализация (даже надписи на предметах!). Неужели создатели переснимали все кадры для каждой локализации? Не похоже на комп. графику (хотя может быть).
info [Профиль]  [ЛС] 

post 06-Фев-2016 12:09 (спустя 9 месяцев 4 дня) [-]0[+]

Топик был перенесен из форума Новинки 2014-2015 (Web-DL, DVD, HD DVD, Blu-ray, HD Rips) в форум Мультфильмы (HD Video)

LyaKich
 
Показать сообщения:    
Ответить на тему

Текущее время: 03-Дек 19:44

Часовой пояс: GMT + 4



Вы не можете начинать темы
Вы не можете отвечать на сообщения
Вы не можете редактировать свои сообщения
Вы не можете удалять свои сообщения
Вы не можете голосовать в опросах
Вы не можете прикреплять файлы к сообщениям
Вы не можете скачивать файлы