Ошибка

Барашек Шон / Shaun the Sheep Movie (Марк Бертон) [2015, мультфильм, комедия, приключения, семейный, WEB-DLRip]

Ответить на тему
 
Автор Сообщение

BZzz

Пол: Пол:Муж

Стаж: 5 лет 1 месяц

Сообщений: 3647

Россия
Рейтинг

post 30-Апр-2015 02:22 4[+]

[Цитировать] 

Барашек Шон / Shaun the Sheep Movie
«Бе-е-е-ежим в кино!»




Год выпуска: 2015
Страна: Великобритания , Франция
Жанр: мультфильм, комедия, приключения, семейный
Продолжительность: 01:21:33
Перевод: Профессиональный (дублированный)[цифровая лицензия iTunes]

Режиссер: Марк Бертон

В ролях: Джастин Флетчер (Justin Fletcher), Джон Шпаркс (John Sparkes), Омид Джалили (Omid Djalili), Ричард Веббер (Richard Webber), Кейт Харбор (Kate Harbour), Тим Хэндс (Tim Hands), Энди Найман (Andy Nyman), Саймон Гринхолл (Simon Greenall)

Описание: Мирная жизнь маленькой овцефермы оказывается под угрозой, когда в результате очередной проказы неутомимого Барашка Шона хозяин фермы попадает в большой город. Вдоволь навеселившись полной свободой и безнаказанностью, Шон и остальное стадо барашков начинают волноваться за Фермера и решают отправиться на его спасение. Замаскировавшись под людей, они едут в большой город, где их ждет самое весёлое и эпическое приключение всей жизни.

Сборы в мире: $54 000 000
Сборы в России: $1 105 602



Качество: WEB-DLRip
Формат: AVI
Видео кодек: XviD
Аудио кодек: AC3
Видео: 720x384 (1.875:1), 25.000 fps, XviD, 2 006 Kbps
Аудио #1: AC3, 384 Kbps, 48.0 KHz, 6 ch
> Ресторан, где овцы пытаются слиться с посетителями, называется «Le Chou Brule", что означает «Сгоревшая капуста».

> Над фильмом работали двадцать аниматоров, каждый из которых создавал по 2 секунды видеоматериала в день.

> Книга, которую читает человек в туалете, это учебное пособие по тренировке собак из сериала «Барашек Шон» (2007) (24-й эпизод второго сезона).

Внимание! Дальнейший список фактов о мультфильме содержит спойлеры. Будьте осторожны.

> Сразу после того, как овцы спасают фермера от парикмахеров, они поворачивают за угол, чтобы бежать по переулку. В этот момент на стене можно заметить плакат «John Cooper Clarke and The Fall».
General
Complete name : Barashek.Shon.2015.D.WEB-DLRip.avi
Format : AVI
Format/Info : Audio Video Interleave
File size : 1.37 GiB
Duration : 1h 21mn
Overall bit rate : 2 400 Kbps
Writing application : VirtualDubMod 1.5.10.3 | www.virtualdub-fr.org || (build 2550/release)
Writing library : VirtualDubMod build 2550/release

Video
ID : 0
Format : MPEG-4 Visual
Format profile : Advanced Simple@L5
Format settings, BVOP : Yes
Format settings, QPel : No
Format settings, GMC : No warppoints
Format settings, Matrix : Default (MPEG)
Codec ID : XVID
Codec ID/Hint : XviD
Duration : 1h 21mn
Bit rate : 2 006 Kbps
Width : 720 pixels
Height : 384 pixels
Display aspect ratio : 1.875
Frame rate : 25.000 fps
Color space : YUV
Chroma subsampling : 4:2:0
Bit depth : 8 bits
Scan type : Progressive
Bits/(Pixel*Frame) : 0.290
Stream size : 1.14 GiB (84%)
Writing library : XviD 1.2.1 (UTC 2008-12-04)

Audio
ID : 1
Format : AC-3
Format/Info : Audio Coding 3
Mode extension : CM (complete main)
Codec ID : 2000
Duration : 1h 21mn
Bit rate mode : Constant
Bit rate : 384 Kbps
Channel(s) : 6 channels
Channel positions : Front: L C R, Side: L R, LFE
Sampling rate : 48.0 KHz
Bit depth : 16 bits
Stream size : 224 MiB (16%)
Alignment : Split accross interleaves
Interleave, duration : 40 ms (1.00 video frame)
Interleave, preload duration : 500 ms
info [Профиль]  [ЛС] 

fArsh1k

Пол: Пол:Муж

Стаж: 5 лет 4 месяца

Сообщений: 119

Казахстан
Рейтинг

post 30-Апр-2015 09:55 (спустя 7 часов) [-]9[+]

[Цитировать] 

Офигенный мульт, столько позитива
Сериал так вообще - луч солнца в темном царстве мультипликации
info [Профиль]  [ЛС] 

Barankin88

Стаж: 2 года

Сообщений: 2

Предупреждений: 1

Россия
Рейтинг

post 03-Май-2015 12:21 (спустя 3 дня) [-]0[+]

[Цитировать] 

спасибо, заценим!
info [Профиль]  [ЛС] 

Eakwarp

Пол: Пол:Муж

Стаж: 6 лет 4 месяца

Сообщений: 15

Россия
Рейтинг

post 03-Май-2015 23:19 (спустя 10 часов) [-]0[+]

[Цитировать] 

Позитивно, хорошо сделано, но очень сухо для полнометража.
info [Профиль]  [ЛС] 

Алексо

Пол: Пол:Муж

Стаж: 2 года 5 месяцев

Сообщений: 148

Россия
Рейтинг

post 04-Май-2015 17:53 (спустя 18 часов) [-]0[+]

[Цитировать] 

Единственный позитивный мультк, который крутили по 2х2. Где нету прочей хрени! Оценим...
info [Профиль]  [ЛС] 

AFILEXO

Пол: Пол:Муж

Стаж: 7 лет 1 месяц

Сообщений: 520

Россия
Рейтинг

post 12-Май-2015 21:40 (спустя 8 дней) [-]0[+]

[Цитировать] 

Просто классный и позитивный мульт ,рекомендую всем любителям!
info [Профиль]  [ЛС] 

post 05-Фев-2016 01:18 (спустя 8 месяцев 23 дня) [-]0[+]

Топик был перенесен из форума Новинки 2014-2015 (Rips) в форум Зарубежные полнометражные мультфильмы

LyaKich
 
Показать сообщения:    
Ответить на тему

Текущее время: 03-Дек 13:44

Часовой пояс: GMT + 4



Вы не можете начинать темы
Вы не можете отвечать на сообщения
Вы не можете редактировать свои сообщения
Вы не можете удалять свои сообщения
Вы не можете голосовать в опросах
Вы не можете прикреплять файлы к сообщениям
Вы не можете скачивать файлы