Ошибка

До окончания фрилича осталось:


Гнездо дракона / Dragon Nest: Warriors' Dawn (Юэфэн Сонг) [2014, мультфильм, фэнтези, приключения, семейный, WEB-DL 720p]

Ответить на тему
 
Автор Сообщение

BZzz

Пол: Пол:Муж

Стаж: 5 лет 1 месяц

Сообщений: 3647

Россия
Рейтинг

post 27-Апр-2015 23:07 1[+]

[Цитировать] 

Dragon Nest: Warriors' Dawn




Год выпуска: 2014
Страна: США , Китай , Франция
Жанр: мультфильм, фэнтези, приключения, семейный
Продолжительность: 01:30:01
Перевод: Профессиональный (дублированный)[цифровая лицензия iTunes]

Режиссер: Юэфэн Сонг

В ролях: Цзяо Сюй (Jiao Xu), Гуаньлин Джи (Guanlin Ji), Йинг Хуан (Ying Huang), Давей Шен (Dawei Shen), Сянлонг Менг (Xianglong Meng), Йе Сунь (Ye Sun), Тиан Джин (Tian Jing), Хон Шан (Hong Shang)

Описание: Кто бы мог подумать, что всегда неуклюжий, но несомненно талантливый парень станет великим героем, который спасет свою красивейшую планету от пробудившегося зла?Много лет, пока легендарный Черный дракон спал, земля Алтера хранила хрупкий мир между расами людей, эльфов и неведомых нашему миру животных. Когда же он пробудился, охваченные ужасом жители были вынуждены бежать сквозь остров в попытке найти спасение…Наш герой Ламберт в компании своих пушистых компаньонов отправляется в путь полный веселых развлечений и приключений, встречая настоящих друзей и любовь в лице прекрасной эльфийской девочки. Объединившись, они находят тайную дорогу к пещере дракона, а юный воин выполняет возложенную на него важнейшую миссию: он входит в доверие к Черному Дракону, чтобы с честью и юмором выйти победителем.

Бюджет: $40 000 000



Качество: WEB-DL 720p
Формат: MKV
Видео кодек: AVC
Аудио кодек: AC3
Видео: 1280x690 (1.855:1), 24.000 fps, High@L3.1, 3 973 Kbps
Аудио #1: AC3, 384 Kbps, 48.0 KHz, 6 ch
General
Complete name : Gnezdo.drakona.2014.D.WEB-DL.720p.mkv
Format : Matroska
File size : 2.80 GiB
Duration : 1h 30mn
Overall bit rate : 4 445 Kbps
Encoded date : UTC 2015-04-27 16:21:42
Writing application : mkvmerge v6.9.1 ('Blue Panther') 64bit built on Apr 18 2014 18:23:38
Writing library : libebml v1.3.0 + libmatroska v1.4.1

Video
ID : 1
Format : AVC
Format/Info : Advanced Video Codec
Format profile : High@L3.1
Format settings, CABAC : No
Format settings, ReFrames : 2 frames
Muxing mode : Container profile=Unknown@3.1
Codec ID : V_MPEG4/ISO/AVC
Duration : 1h 30mn
Bit rate : 3 973 Kbps
Width : 1 280 pixels
Height : 690 pixels
Display aspect ratio : 1.855
Frame rate : 24.000 fps
Color space : YUV
Chroma subsampling : 4:2:0
Bit depth : 8 bits
Scan type : Progressive
Bits/(Pixel*Frame) : 0.187
Stream size : 2.50 GiB (89%)
Color primaries : BT.709-5, BT.1361, IEC 61966-2-4, SMPTE RP177
Transfer characteristics : BT.709-5, BT.1361
Matrix coefficients : BT.709-5, BT.1361, IEC 61966-2-4 709, SMPTE RP177

Audio
ID : 2
Format : AC-3
Format/Info : Audio Coding 3
Mode extension : CM (complete main)
Codec ID : A_AC3
Duration : 1h 30mn
Bit rate mode : Constant
Bit rate : 384 Kbps
Channel(s) : 6 channels
Channel positions : Front: L C R, Side: L R, LFE
Sampling rate : 48.0 KHz
Bit depth : 16 bits
Stream size : 247 MiB (9%)
Language : Russian

Menu
00:00:00.000 : en:Глава 1
00:05:04.000 : en:Глава 2
00:10:18.000 : en:Глава 3
00:15:27.000 : en:Глава 4
00:20:11.000 : en:Глава 5
00:25:08.000 : en:Глава 6
00:30:04.000 : en:Глава 7
00:35:11.000 : en:Глава 8
00:40:17.000 : en:Глава 9
00:45:15.000 : en:Глава 10
00:50:10.000 : en:Глава 11
00:55:24.000 : en:Глава 12
01:00:22.000 : en:Глава 13
01:05:07.000 : en:Глава 14
01:09:48.000 : en:Глава 15
01:14:59.000 : en:Глава 16
01:20:07.000 : en:Глава 17
info [Профиль]  [ЛС] 

Giltias

Пол: Пол:Муж

Стаж: 6 лет 9 месяцев

Сообщений: 546

Россия
Рейтинг

post 27-Апр-2015 23:30 (спустя 22 минуты) [-]8[+]

[Цитировать] 

Режиссер: Юэфэн Сонг

В ролях: Цзяо Сюй (Jiao Xu), Гуаньлин Джи (Guanlin Ji), Йинг Хуан (Ying Huang), Давей Шен (Dawei Shen), Сянлонг Менг (Xianglong Meng), Йе Сунь (Ye Sun), Тиан Джин (Tian Jing), Хон Шан (Hong Shang)

И Кто из этих вполне возможно талантливых людей является создателем ВК и Кинг-Конга?

_________________
Знал ли Создатель в шестой день творения,что уготовано миру людей...
info [Профиль]  [ЛС] 

alienheart

Стаж: 6 лет 10 месяцев

Сообщений: 482

Предупреждений: 1

Канада
Рейтинг

post 27-Апр-2015 23:59 (спустя 29 минут) [-]1[+]

[Цитировать] 

Giltias писал(а):

Режиссер: Юэфэн Сонг

В ролях: Цзяо Сюй (Jiao Xu), Гуаньлин Джи (Guanlin Ji), Йинг Хуан (Ying Huang), Давей Шен (Dawei Shen), Сянлонг Менг (Xianglong Meng), Йе Сунь (Ye Sun), Тиан Джин (Tian Jing), Хон Шан (Hong Shang)

И Кто из этих вполне возможно талантливых людей является создателем ВК и Кинг-Конга?
вот и я задаюсь этим же вопросом... с какого боку тут кинг конг и властелин?
info [Профиль]  [ЛС] 

IgorKaa

Пол: Пол:Муж

Стаж: 6 лет 2 месяца

Сообщений: 37

Россия
Рейтинг

post 28-Апр-2015 00:32 (спустя 33 минуты) [-]0[+]

[Цитировать] 

alienheart писал(а):

Giltias писал(а):

Режиссер: Юэфэн Сонг

В ролях: Цзяо Сюй (Jiao Xu), Гуаньлин Джи (Guanlin Ji), Йинг Хуан (Ying Huang), Давей Шен (Dawei Shen), Сянлонг Менг (Xianglong Meng), Йе Сунь (Ye Sun), Тиан Джин (Tian Jing), Хон Шан (Hong Shang)

И Кто из этих вполне возможно талантливых людей является создателем ВК и Кинг-Конга?
вот и я задаюсь этим же вопросом... с какого боку тут кинг конг и властелин?
Может студия спецэфектов?
info [Профиль]  [ЛС] 

BZzz

Пол: Пол:Муж

Стаж: 5 лет 1 месяц

Сообщений: 3647

Россия
Рейтинг

post 28-Апр-2015 00:36 (спустя 3 минуты) [-]1[+]

[Цитировать] 

Giltias
alienheart
IgorKaa
По-видимому их объединяет только художник Грант Мейджор.

_________________
info [Профиль]  [ЛС] 

monteki92

Пол: Пол:Муж

Стаж: 4 года 7 месяцев

Сообщений: 326

Предупреждений: 1

Рейтинг

post 28-Апр-2015 00:44 (спустя 7 минут) [-]0[+]

[Цитировать] 

гляну из за игрушки=) Интересно посмотреть на Вескульда и Альтеру в целом =))

_________________
Если школьницам не продают бухло и сигареты,
Я беру свой паспорт и спешу на помощь этим детям.
Пейте, леди, пока не видят мама и папа,
И где же был Тесак, пока я их лапал?
info [Профиль]  [ЛС] 

wifetrex

Пол: Пол:Муж

Стаж: 6 лет 11 месяцев

Сообщений: 174

Россия
Рейтинг

post 03-Май-2015 17:12 (спустя 5 дней) [-]0[+]

[Цитировать] 

Еще в каком-то кино обзоре сказали, что мульт имеет какое-то отношение к Final Fantasy

_________________
Нинтенда - она словно первая любовь, первый раз как в первый раз!
info [Профиль]  [ЛС] 

post 13-Дек-2015 14:23 (спустя 7 месяцев 9 дней) [-]0[+]

Топик был перенесен из форума Новинки 2014-2015 (Web-DL, DVD, HD DVD, Blu-ray, HD Rips) в форум Мультфильмы (HD Video)

BZzz
 

exmemail

Стаж: 6 лет 2 месяца

Сообщений: 45

Россия
Рейтинг

post 01-Май-2016 18:03 (спустя 11 месяцев) [-]0[+]

[Цитировать] 

возрастные ограничения?
info [Профиль]  [ЛС] 
Показать сообщения:    
Ответить на тему

Текущее время: 10-Дек 14:57

Часовой пояс: GMT + 4



Вы не можете начинать темы
Вы не можете отвечать на сообщения
Вы не можете редактировать свои сообщения
Вы не можете удалять свои сообщения
Вы не можете голосовать в опросах
Вы не можете прикреплять файлы к сообщениям
Вы не можете скачивать файлы