Ошибка

Спецназ древнего мира (1 сезон: 10 серий из 10) / Ancient Black Ops (Nick Davidson, Adrian Musto) [2014, Документальный, постановочный, история, HDTVRip 720p]

Ответить на тему
 
Автор Сообщение

karlmenni

Пол: Пол:Муж

Стаж: 1 год 11 месяцев

Сообщений: 1235

Россия
Рейтинг

post 26-Апр-2015 13:57 2[+]

[Цитировать] 

Спецназ древнего мира (1 сезон: 10 серий из 10) / Ancient Black Ops


Год выпуска: 2014
Страна: Великобритания
Жанр: Документальный, постановочный, история
Продолжительность: 10 х ~ 00:48:35
Перевод: Документальный дубляж (SDI-Media)
Субтитры:
Нет
В ролях: Kumud Pant, Murtaza Arif, Max Bracey, Andrea Gambadoro, Martin Krøis Holtmann, Elias J. Kay, Kenny Knight, Nicholas Marshall
Режиссёр: Nick Davidson, Adrian Musto
Сериал рассказывает о первых элитных подразделениях, которые существовали в древнем мире. Правители мира сего всегда нуждались в защите, поэтому в их распоряжении находились специально обученные воины, владеющие невероятными навыками, а также обученные пользоваться разнообразным оружием, и готовые на все ради сохранения жизни своего лидера. В каждой серии рассказывается о методах, которые использовались различными элитными войсками для выполнения специальных задач. Вы узнаете историю воинских формирований Греции, Византии, Японии и других древних цивилизаций. Узнаем, как древнескандинавский викинг мог держать под контролем целую армию, имея в распоряжении лишь боевой топор и галлюциногенные наркотики, как 47 ронинов однажды отомстили за смерть своего хозяина ценой собственных жизней, а также как ацтеки посылали своих воинов-ягуаров в стан врага в качестве группы захвата, чтобы обезвредить противников. Нас ждут захватывающие истории, возвращающие на много веков назад и рассказывающие о реальных конфликтах представителей античного мира. Именитые эксперты поделятся своим взглядом на события давно минувших дней, а точная реконструкция позволит воочию понаблюдать за работой элитных подразделений древнего мира.
Качество: HDTVRip (720p)
Формат: MKV
Видео кодек: AVC
Видео: AVC, 1280x720 (16:9), 25.000 fps, 2 322 Kbps (0.101 bit/pixel)
Аудио : AC-3, 48.0 KHz, 2 ch, 192 Kbps, CBR




Релиз: HDTVRip by alf62
1. Ассасины / Assassins
Ассасины являлись самым смертоносным войском средневековья. Чтобы понять, кем они на самом деле были, нам необходимо отправится в Персию 11 века.

2. Спартанцы / Spartans
Находясь под угрозой нападения персидской армии, древние греки вынуждены были создать свои собственные войска специального назначения. Воины этой элитной части назывались спартанцами.

3. Сикарии / The Sicarii
Сикарии являлись войсками специального назначения, которые сражались против римских захватчиков в Иерусалиме в I веке нашей эры.

4. Воины призраки / The Ghost Warriors
Воины призраки являлись элитными войсками древней Германии, которые были обучены сражению ночью. Они, как правило, появлялись из неоткуда, вселяя панику и страх.

5. Берсерки (Викинги) / The Viking Berserkers
Берсерки были скандинавскими воинами, которые отличались неистовостью, неимоверной силой, быстрой реакцией и нечувствительностью к боли.

6. Варяжская гвардия / The Varangian Guard
Варяжская гвардия являлась элитным войском и одним из крупнейших подразделений Византийской империи.

7. «Воины-орлы» ацтеков / Aztec Eagle Warriors
Воины-ягуары входили в состав армии ацтеков и представляли собой элитные воинские части, аналогичные воинам-орлам.

8. Гавайские воины Коа / Hawaiian Koa Warriors
Когда-то на Гавайских островах проживали древние воины, которые изобрели искусство боя под названием Капу Куялуа, которое заключалось в том, что воин должен был сломать каждую кость противника.

9. Ниндзя / Ninja
Ниндзя являлись наемными убийцами в древней Японии. Согласно легендам, ниндзя были отважные, тренированные люди, прошедшие ещё с детства подготовку в очень сложном искусстве ниндзюцу.

10. 47 ронинов / The 47 Ronin
Ронины – это самураи – изгнанники, которые сражались за восстановление чести своего хозяина. Их легендарный героизм был отражен в художественном фильме «47 ронинов».

Код:

Общее
Уникальный идентификатор                 : 201326702054119226371822048996886103102 (0x97761CC6D7573C9988773A357588C43E)
Полное имя                               : C:\MyFiles\FILM\Specnaz.drevnego.mira.2014.720p\Specnaz.drevnego.mira.(1.serija.iz.10).Assasiny.2014.720p.HDTV.x264.alf62.mkv
Формат                                   : Matroska
Версия формата                           : Version 4 / Version 2
Размер файла                             : 894 Мбайт
Продолжительность                        : 48 м.
Общий поток                              : 2565 Кбит/сек
Дата кодирования                         : UTC 2015-04-24 14:09:06
Программа кодирования                    : mkvmerge v6.6.0 ('The Edge Of The In Between') built on Dec  1 2013 17:55:00
Библиотека кодирования                   : libebml v1.3.0 + libmatroska v1.4.1

Видео
Идентификатор                            : 1
Формат                                   : AVC
Формат/Информация                        : Advanced Video Codec
Профиль формата                          : High@L4.1
Параметр CABAC формата                   : Да
Параметр ReFrames формата                : 5 кадров
Идентификатор кодека                     : V_MPEG4/ISO/AVC
Продолжительность                        : 48 м.
Битрейт                                  : 2322 Кбит/сек
Ширина                                   : 1280 пикселей
Высота                                   : 720 пикселей
Соотношение сторон                       : 16:9
Режим частоты кадров                     : Постоянный
Частота кадров                           : 25,000 кадров/сек
Цветовое пространство                    : YUV
Субдискретизация насыщенности            : 4:2:0
Битовая глубина                          : 8 бит
Тип развёртки                            : Прогрессивная
Бит/(Пиксели*Кадры)                      : 0.101
Размер потока                            : 809 Мбайт (91%)
Язык                                     : English
Default                                  : Нет
Forced                                   : Нет

Аудио
Идентификатор                            : 2
Формат                                   : AC-3
Формат/Информация                        : Audio Coding 3
Расширение режима                        : CM (complete main)
Параметр Endianness формата              : Big
Идентификатор кодека                     : A_AC3
Продолжительность                        : 48 м.
Вид битрейта                             : Постоянный
Битрейт                                  : 192 Кбит/сек
Каналы                                   : 2 канала
Расположение каналов                     : Front: L R
Частота                                  : 48,0 КГц
Битовая глубина                          : 16 бит
Метод сжатия                             : С потерями
Размер потока                            : 66,9 Мбайт (7%)
Язык                                     : English
Default                                  : Нет
Forced                                   : Нет


info [Профиль]  [ЛС] 

Nikohorse

Стаж: 3 года 3 месяца

Сообщений: 127

Рейтинг

post 26-Апр-2015 18:27 (спустя 4 часа) [-]0[+]

[Цитировать] 

Описание интересное, качаю.

_________________
info [Профиль]  [ЛС] 

Alins

Пол: Пол:Муж

Стаж: 5 лет 5 месяцев

Сообщений: 351

Рейтинг

post 26-Апр-2015 20:58 (спустя 2 часа 31 минута) [-]0[+]

[Цитировать] 

Наверное косяк скачки, но первая серия не с начала и после 20 минут начинается заново, в итоге 40 по одним и тем же кускам по 20
info [Профиль]  [ЛС] 

Seatroll

Пол: Пол:Муж

Стаж: 7 лет 1 месяц

Сообщений: 412

Предупреждений: 1

Тёркс и Кайкос
Рейтинг

post 26-Апр-2015 22:06 (спустя 1 час 7 минут) [-]0[+]

[Цитировать] 

У меня бабушка хотела это глянуть, качну ей. Спасибо.
info [Профиль]  [ЛС] 

Kaiser88

Стаж: 5 лет 5 месяцев

Сообщений: 98

СССР
Рейтинг

post 27-Апр-2015 06:10 (спустя 8 часов) [-]0[+]

[Цитировать] 

Seatroll писал(а):

У меня бабушка хотела это глянуть, качну ей. Спасибо.
Ну да, бабушка.

Конечно kolob_125
info [Профиль]  [ЛС] 
Показать сообщения:    
Ответить на тему

Текущее время: 05-Дек 08:32

Часовой пояс: GMT + 4



Вы не можете начинать темы
Вы не можете отвечать на сообщения
Вы не можете редактировать свои сообщения
Вы не можете удалять свои сообщения
Вы не можете голосовать в опросах
Вы не можете прикреплять файлы к сообщениям
Вы не можете скачивать файлы