Ошибка

Мой маленький пони: Дружба это магия (Сезон 4, Серия 1-26 из 26) [2013 г., Комедия, Семейный, Фэнтези, Web-dlrip-avc]

Ответить на тему
 
Автор Сообщение

vladafon

Пол: Пол:Муж

Стаж: 2 года 6 месяцев

Сообщений: 31

Россия
Рейтинг

post 19-Апр-2015 16:59 0[+]

[Цитировать] 

Мой маленький пони: Дружба это магия / My Little Pony: Friendship Is Magic

Год выпуска: 2013
Страна: США, Канада
Жанр: Комедия, Семейный, Фэнтези
Серия: Серия 1-26 из 26
Сезон: 4
Продолжительность: ~00:22:00
Перевод (Аудио #1): Профессиональный (полное дублирование) [Gala Voices]
Перевод (Аудио #2): Без перевода (английский, оригинальный)



Режиссер:
  • Джейсон Тиссен, Джеймс Вуттон
В ролях:
  • Тара Стронг, Эшли Болл, Андреа Либман, Табита Сен-Джермейн и др. (английский дубляж)
  • Екатерина Дейнека, Марина Шляхтенко, Марина Иванова, Марина Шорикова, Элис Ковальская, Валерия Илларионова, Макс Шепуленко и др. (русский дубляж)

Описание:
Главная героиня - единорог Твайлайт Спаркл, любимая ученица Принцессы Селестии, она всё время сидела за книгами и считал что друзья не нужны. Принцесса Селестия даёт ей задание найти друзей и посылает Твайлайт вместе с её помошником, драконом по имени Спайк, в небольшой городок Понивилль. Там она встречает своих новых друзей: задиристую Рейнбоу Деш, модницу Рарити, трудолюбивую Эплджек, стеснительную Флатершай и очень весёлую и непредсказуемую Пинки Пай. Вместе они решают все возникающие проблемы и идут к новым открытиям. Твайлайт и пятеро её друзей постоянно узнают что-то новое о дружбе.


Качество: Web-dlrip-avc
Формат: MKV
Видео: 1280x720, 24 fps, ~1500 kbps, 0.068 bit/pixel
Аудио #1:
Аудио кодек: AC3
Аудио: 48 kHz, 2 ch, 192 kbps
Аудио #2:
Аудио кодек: AC3
Аудио: 48 kHz, 2 ch, 192 kbps
General
Unique ID : 201130328371617695241468386521310256232 (0x97504ACE819253909C89822276CB5C68)
Format : Matroska
Format version : Version 4 / Version 2
File size : 298 MiB
Duration : 22mn 8s
Overall bit rate : 1 880 Kbps
Encoded date : UTC 2014-02-17 07:07:32
Writing application : mkvmerge v6.6.0 ('The Edge Of The In Between') built on Dec 1 2013 17:55:00
Writing library : libebml v1.3.0 + libmatroska v1.4.1

Video
ID : 1
Format : AVC
Format/Info : Advanced Video Codec
Format profile : High@L4.1
Format settings, CABAC : Yes
Format settings, ReFrames : 9 frames
Codec ID : V_MPEG4/ISO/AVC
Duration : 22mn 8s
Bit rate : 1 494 Kbps
Width : 1 280 pixels
Height : 720 pixels
Display aspect ratio : 16:9
Frame rate mode : Constant
Frame rate : 23.976 fps
Color space : YUV
Chroma subsampling : 4:2:0
Bit depth : 8 bits
Scan type : Progressive
Bits/(Pixel*Frame) : 0.068
Stream size : 231 MiB (78%)
Writing library : x264 core 130 r2273 b3065e6
Encoding settings : cabac=1 / ref=9 / deblock=1:1:1 / analyse=0x3:0x133 / me=tesa / subme=11 / psy=1 / psy_rd=0.40:0.00 / mixed_ref=1 / me_range=24 / chroma_me=1 / trellis=2 / 8x8dct=1 / cqm=0 / deadzone=21,11 / fast_pskip=0 / chroma_qp_offset=-2 / threads=12 / lookahead_threads=3 / sliced_threads=0 / nr=0 / decimate=1 / interlaced=0 / bluray_compat=0 / constrained_intra=0 / bframes=16 / b_pyramid=2 / b_adapt=2 / b_bias=0 / direct=3 / weightb=1 / open_gop=0 / weightp=2 / keyint=240 / keyint_min=24 / scenecut=40 / intra_refresh=0 / rc_lookahead=60 / rc=2pass / mbtree=1 / bitrate=1494 / ratetol=1.0 / qcomp=0.60 / qpmin=0 / qpmax=69 / qpstep=4 / cplxblur=20.0 / qblur=0.5 / vbv_maxrate=62500 / vbv_bufsize=78125 / nal_hrd=none / ip_ratio=1.40 / aq=1:0.60
Language : English
Default : Yes
Forced : No
Color primaries : BT.709
Transfer characteristics : BT.709
Matrix coefficients : BT.709
Color range : Limited

Audio #1
ID : 2
Format : AC-3
Format/Info : Audio Coding 3
Mode extension : CM (complete main)
Format settings, Endianness : Big
Codec ID : A_AC3
Duration : 22mn 8s
Bit rate mode : Constant
Bit rate : 192 Kbps
Channel(s) : 2 channels
Channel positions : Front: L R
Sampling rate : 48.0 KHz
Bit depth : 16 bits
Compression mode : Lossy
Stream size : 30.4 MiB (10%)
Language : Russian
Default : Yes
Forced : No

Audio #2
ID : 3
Format : AC-3
Format/Info : Audio Coding 3
Mode extension : CM (complete main)
Format settings, Endianness : Big
Codec ID : A_AC3
Duration : 22mn 8s
Bit rate mode : Constant
Bit rate : 192 Kbps
Channel(s) : 2 channels
Channel positions : Front: L R
Sampling rate : 48.0 KHz
Bit depth : 16 bits
Compression mode : Lossy
Stream size : 30.4 MiB (10%)
Language : English
Default : No
Forced : No
1.Princess Twilight Part 1
2.Princess Twilight Part 2
3.Castle Mane-ia
4.Daring Don’t
5.Flight to the Finish
6.Power Ponies
7.Bats!
8.Rarity Takes Manehattan
9.Pinkie Apple Pie
10.Rainbow Falls
11.Three’s a Crowd
12.Pinkie Pride
13.Simple Ways
14.Filli Vanilli
15.Twilight Time
16.It Ain’t Easy Being Breezies
17.Somepony to Watch Over Me
18.Maud Pie
19.For Whom the Sweetie Belle Toils
20.Leap of Faith
21.Testing, Testing, 1, 2, 3
22.Trade Ya!
23.Inspiration Manifestation
24.Equestria Games
25.Twilight’s Kingdom — Part 1
26.Twilight’s Kingdom — Part 2
http://tapochek.net/viewtopic.php?t=143130
В моей раздаче присутствует русская озвучка
info [Профиль]  [ЛС] 
Показать сообщения:    
Ответить на тему

Текущее время: 04-Дек 20:24

Часовой пояс: GMT + 4



Вы не можете начинать темы
Вы не можете отвечать на сообщения
Вы не можете редактировать свои сообщения
Вы не можете удалять свои сообщения
Вы не можете голосовать в опросах
Вы не можете прикреплять файлы к сообщениям
Вы не можете скачивать файлы