Ошибка

Кенгуру Джек / Kangaroo Jack (Дэвид МакНэлли) [2003, комедия, приключения, криминал, WEB-DLRip] Dub от R.G. TNClub

Ответить на тему
 
Автор Сообщение

R.G. TNClub

Стаж: 2 года 3 месяца

Сообщений: 515

Рейтинг

post 11-Апр-2015 11:57 0[+]

[Цитировать] 

Кенгуру Джек / Kangaroo Jack

Страна: США , Австралия
Жанр: комедия, приключения, криминал
Год выпуска: 2003
Продолжительность: 01:29:03
Перевод: Профессиональный (полное дублирование) - русский
Субтитры: нет

Режиссер: Дэвид МакНэлли
В ролях: Джерри О`Коннелл, Энтони Андерсон, Эстелла Уоррен, Кристофер Уокен, Мартон Чокаш, Дайэн Кэннон, Майкл Шэннон, Билл Хантер, Дэвид Нгумбуджарра, Марк Селлито

Описание: Чарли и Луис, молодые неудачники-американцы, вечно попадающие впросак, посланы крутым мафиози в Австралию с конвертом, где содержалось 50 тысяч долларов. Но по дурости и исключительно ради хохмы они нацепили куртку с деньгами в кармане на сбитого их же машиной кенгуру, который вдруг ожил и сбежал со всем содержимым в неизвестном направлении. Обоим горе-перевозчикам предстоит не только разыскать исчезнувшего сумчатого животного, но и попытаться избежать кары со стороны местного наёмного убийцы, которому они должны были передать этот пакет, а главное — уклониться от специального посланника мафии из Америки, направленного с целью расправы над двумя заполошными типами, приносящими одни несчастья. Так что поимка ими кенгуру с деньгами — вовсе не случайный выигрыш в казино (то есть джекпот), а отчаянная попытка остаться в живых, хотя нельзя не признать, что без большого везения обоим точно бы не поздоровилось.

Качество видео: WEB-DLRip [энкод markfiter]
Формат видео: AVI
Видео: 720x304 (2.37:1), 23.976 fps, XviD build 73 ~1953 kbps avg, 0.37 bit/pixel
Аудио: 48 kHz, AC3 Dolby Digital, 3/2 (L,C,R,l,r) + LFE ch, ~384 kbps
Раздача от & markfiter

Код:

Общее
Формат                                   : AVI
Формат/Информация                        : Audio Video Interleave
Размер файла                             : 1,46 Гбайт
Продолжительность                        : 1 ч. 29 м.
Общий поток                              : 2347 Кбит/сек
Программа кодирования                    : VirtualDubMod 1.5.10.3 | (build 2550/release)
Библиотека кодирования                   : VirtualDubMod build 2550/release

Видео
Идентификатор                            : 0
Формат                                   : MPEG-4 Visual
Профиль формата                          : Advanced Simple@L5
Параметр BVOP формата                    : 2
Параметр QPel формата                    : Нет
Параметр GMC формата                     : Без точки перехода
Параметр матрицы формата                 : Выборочная
Идентификатор кодека                     : XVID
Идентификатор кодека/Подсказка           : XviD
Продолжительность                        : 1 ч. 29 м.
Битрейт                                  : 1953 Кбит/сек
Ширина                                   : 720 пикселей
Высота                                   : 304 пикселя
Соотношение сторон                       : 2,35:1
Частота кадров                           : 23,976 кадра/сек
Цветовое пространство                    : YUV
Субдискретизация насыщенности            : 4:2:0
Битовая глубина                          : 8 бит
Тип развёртки                            : Прогрессивная
Метод сжатия                             : С потерями
Бит/(Пиксели*Кадры)                      : 0.372
Размер потока                            : 1,22 Гбайт (83%)
Библиотека кодирования                   : XviD 73

Аудио
Идентификатор                            : 1
Формат                                   : AC-3
Формат/Информация                        : Audio Coding 3
Расширение режима                        : CM (complete main)
Параметр Endianness формата              : Big
Идентификатор кодека                     : 2000
Продолжительность                        : 1 ч. 29 м.
Вид битрейта                             : Постоянный
Битрейт                                  : 384 Кбит/сек
Каналы                                   : 6 каналов
Расположение каналов                     : Front: L C R, Side: L R, LFE
Частота                                  : 48,0 КГц
Битовая глубина                          : 16 бит
Метод сжатия                             : С потерями
Размер потока                            : 245 Мбайт (16%)
Выравнивание                             : Разделение по промежуткам
Продолжительность промежутка             : 42  мс. (1,00 видеокадр)
Время предзагрузки промежутка            : 500  мс.
Информация о раздаче
При перезаливе указывайте, пож-та, автора рипов markfiter и R.G. TNClub, а также прикрепляйте лычку или баннер.
Пожалуйста, оставайтесь на раздаче как можно дольше!
Релиз специально для Tapochek.net
Все раздачи R.G.TNClub




Оформление by:markfiter
info [Профиль]  [ЛС] 

post 11-Апр-2015 11:58 (спустя 1 минута) [-]0[+]

Топик был перенесен из форума Оформление раздач (R.G. TNClub) в форум Зарубежное кино | Rips

R.G. TNClub
 

boldusev

Пол: Пол:Муж

Стаж: 7 лет 2 месяца

Сообщений: 114

Украина
Рейтинг

post 11-Апр-2015 12:29 (спустя 32 минуты) [-]2[+]

[Цитировать] 

О ностальгия. Спасибо.
info [Профиль]  [ЛС] 

post 25-Сен-2015 08:03 (спустя 5 месяцев 13 дней) [-]0[+]

Топик был перенесен из форума Зарубежное кино | Rips в форум Зерубежное видео от R.G. TNclub

L
 

dirol8888

Пол: Пол:Муж

Стаж: 5 лет 5 месяцев

Сообщений: 48

Рейтинг

post 02-Ноя-2015 12:43 (спустя 6 месяцев 21 день) [-]0[+]

[Цитировать] 

Сид, ты где? Третий день скачать не могу
info [Профиль]  [ЛС] 

post 21-Янв-2016 10:59 (спустя 2 месяца 18 дней) [-]0[+]

Топик был перенесен из форума Зарубежное кино от R.G. TNСlub в форум Прочее | Архив (Зарубежное кино)

L
 
Показать сообщения:    
Ответить на тему

Текущее время: 08-Дек 09:59

Часовой пояс: GMT + 4



Вы не можете начинать темы
Вы не можете отвечать на сообщения
Вы не можете редактировать свои сообщения
Вы не можете удалять свои сообщения
Вы не можете голосовать в опросах
Вы не можете прикреплять файлы к сообщениям
Вы не можете скачивать файлы