Ошибка

Школа Монстров: Призрачно / Monster High: Haunted (Дэн Фрага, Уильям Лау) [2015, семейный, HDRip]

Ответить на тему
 
Автор Сообщение

koss555

Пол: Пол:Муж

Стаж: 4 года 11 месяцев

Сообщений: 1549

Россия
Рейтинг

post 18-Мар-2015 17:49 0[+]

[Цитировать] 

Школа Монстров: Призрачно / Monster High: Haunted

Год выпуска: 2015
Страна: США
Жанр: семейный
Продолжительность: 01:15:43
Перевод: Дублированное [лицензия]

Режиссер: Дэн Фрага, Уильям Лау
Сценарий: Кит Вагнер
Продюсер: Маргарет М. Дин, Асаф Фипке, Chuck Johnson
Композитор: Стивен Аргила
Художник: Emily Kelly, Byron Leboe, James Yip Kwan Ng

В ролях: Лора Бэйли, Тодд Хаберкорн, Кэм Кларк, Карен Страссман, Хэвиланд Стиллвелл, Паула Родс, Синди Робинсон, Америка Янг, Эрин Фицджералд, Салли Саффио

СТРАШНОпредставить, какие захватывающие приключения ждут девочек из Школы монстров™ в стенах таинственной Школы призраков! Монстряшки под предводительством Спектры Вондергейст™ случайно попадают в параллельный Мир Духов и их особую школу, которой руководит строгая Директор-Призрак. Она удерживает Спектру среди призраков, не позволяя ей вернуться домой. Пришло время УЖАСНО прекрасным подружкам бросить вызов духам, чтобы спасти одну из них от полного исчезновения!

[b][u]Релиз на DVD
: 2 апреля 2015 «Двадцатый Век Фокс СНГ»
Релиз на Blu-Ray: 2 апреля 2015 «Двадцатый Век Фокс СНГ»



Качество: HDRip
Формат: AVI
Видео кодек: XviD
Аудио кодеk: AC3
Видео: 720x400 (16:9), 23.976 fps, XviD, 1 684 Kbps
Аудио: Аудио #1 Russian: AC3, 448 Kbps, 48.0 KHz, 6 ch
Аудио #2English: AC3, 448 Kbps, 48.0 KHz, 6 ch
General
Complete name : Monster.Sh00ll.2015.D.HDRip.1400Mb.avi
Format : AVI
Format/Info : Audio Video Interleave
File size : 1.37 GiB
Duration : 1h 15mn
Overall bit rate : 2 594 Kbps
Writing application : VirtualDubMod 1.5.10.2 (build 2540/release)
Writing library : VirtualDubMod build 2540/release

Video
ID : 0
Format : MPEG-4 Visual
Format profile : Advanced Simple@L5
Format settings, BVOP : Yes
Format settings, QPel : No
Format settings, GMC : No warppoints
Format settings, Matrix : Default (MPEG)
Codec ID : XVID
Codec ID/Hint : XviD
Duration : 1h 15mn
Bit rate : 1 684 Kbps
Width : 720 pixels
Height : 400 pixels
Display aspect ratio : 16:9
Frame rate : 23.976 fps
Color space : YUV
Chroma subsampling : 4:2:0
Bit depth : 8 bits
Scan type : Progressive
Bits/(Pixel*Frame) : 0.244
Stream size : 912 MiB (65%)
Writing library : XviD 1.2.1 (UTC 2008-12-04)

Audio #1
ID : 1
Format : AC-3
Format/Info : Audio Coding 3
Mode extension : CM (complete main)
Codec ID : 2000
Duration : 1h 15mn
Bit rate mode : Constant
Bit rate : 448 Kbps
Channel(s) : 6 channels
Channel positions : Front: L C R, Side: L R, LFE
Sampling rate : 48.0 KHz
Bit depth : 16 bits
Stream size : 243 MiB (17%)
Alignment : Split accross interleaves
Interleave, duration : 42 ms (1.00 video frame)
Interleave, preload duration : 500 ms

Audio #2
ID : 2
Format : AC-3
Format/Info : Audio Coding 3
Mode extension : CM (complete main)
Codec ID : 2000
Duration : 1h 15mn
Bit rate mode : Constant
Bit rate : 448 Kbps
Channel(s) : 6 channels
Channel positions : Front: L C R, Side: L R, LFE
Sampling rate : 48.0 KHz
Bit depth : 16 bits
Stream size : 243 MiB (17%)
Alignment : Split accross interleaves
Interleave, duration : 42 ms (1.00 video frame)
Interleave, preload duration : 500 ms
info [Профиль]  [ЛС] 

post 18-Мар-2015 17:50 (спустя 40 секунд) [-]0[+]

Топик был перенесен из форума Оформление раздач (Кинематограф) в форум Новинки 2014-2015 (Rips)

koss555
 

post 05-Фев-2016 01:18 (спустя 10 месяцев 17 дней) [-]0[+]

Топик был перенесен из форума Новинки 2014-2015 (Rips) в форум Зарубежные полнометражные мультфильмы

LyaKich
 
Показать сообщения:    
Ответить на тему

Текущее время: 04-Дек 22:28

Часовой пояс: GMT + 4



Вы не можете начинать темы
Вы не можете отвечать на сообщения
Вы не можете редактировать свои сообщения
Вы не можете удалять свои сообщения
Вы не можете голосовать в опросах
Вы не можете прикреплять файлы к сообщениям
Вы не можете скачивать файлы