Ошибка

До окончания фрилича осталось:


Феи: Легенда о чудовище / Tinkerbell And The Legend Of The Neverbeast (Стив Лотер) [2014 г., Мультфильм, фэнтези, приключения, семейный, HDRip] DUB [iTunes]

Ответить на тему
 
Автор Сообщение

Xohllenok

Пол: Пол:Муж

Стаж: 1 год 9 месяцев

Сообщений: 342

Россия
Рейтинг

post 10-Мар-2015 08:23 1[+]

[Цитировать] 


Феи: Легенда о чудовище / Tinkerbell And The Legend Of The Neverbeast
«-»

Год выхода: 2014
Страна: США
Жанр: Мультфильм, фэнтези, приключения, семейный
Продолжительность: 01:16:14
Перевод: Профессиональный (полное дублирование) [iTunes]
Субтитры: Отсутствуют
Режиссер: Стив Лотер
В ролях: Джиннифер Гудвин, Розарио Доусон, Рэйвен, Мэй Уитман, Люси Лью, Томас Леннон, Памела Адлон, Меган Хилти, Мелани Браун
О фильме: Анимационная сказка расскажет удивительную историю о веселой и талантливой фее Фауне, которая убеждена в том, что о книге нельзя судить по ее обложке, впрочем, как и о животном по его клыкам, поэтому она дружит с таинственным существом громадных размеров из Нетландии по прозвищу Чудовище. В это время группа волшебных фей разведки не настолько уверены в этом страшном звере и намереваются захватить его прежде, чем он уничтожит их дома. Они хотят отправиться на поиски Чудовища. Фауна, чтобы спасти своего нового друга, остается лишь доказать всем, что он — существо доброе и не собирается вредить другим…
Качество: HDRip
Формат: avi
Видео кодек: XviD
Аудио кодек: AC3
Видео: 720х400, 23.976 кадр/с, 1785 Кбит/с
Аудио #1: 384 kb/s, 6 ch, 48.0 KHz [Russian]
Аудио #2: 384 kb/s, 6 ch, 48.0 KHz [English]
Сборы в России:
$2 119 686
Дата мировой премьеры: 12 декабря 2014
Дата российской премьеры: 18 декабря 2014, «WDSSPR»
Релиз на DVD: 31 марта 2015, «Уолт Дисней Компани СНГ»
Релиз на Blu-Ray: 31 марта 2015, «Уолт Дисней Компани СНГ»
Общее
Полное имя : D:\Новая папка\фильмы\Fei.Legenda.o.Chudovishe.2014.D.HDRip.1400MB.avi
Формат : AVI
Формат/Информация : Audio Video Interleave
Размер файла : 1,37 Гбайт
Продолжительность : 1 ч. 16 м.
Общий поток : 2567 Кбит/сек
Программа кодирования : VirtualDubMod 1.5.10.3 ||| (build 2550/release)
Библиотека кодирования : VirtualDubMod build 2550/release

Видео
Идентификатор : 0
Формат : MPEG-4 Visual
Профиль формата : Advanced Simple@L5
Параметр BVOP формата : 2
Параметр QPel формата : Нет
Параметр GMC формата : Без точки перехода
Параметр матрицы формата : Default (MPEG)
Идентификатор кодека : XVID
Идентификатор кодека/Подсказка : XviD
Продолжительность : 1 ч. 16 м.
Битрейт : 1686 Кбит/сек
Ширина : 720 пикселей
Высота : 400 пикселей
Соотношение сторон : 16:9
Частота кадров : 23,976 кадра/сек
Цветовое пространство : YUV
Субдискретизация насыщенности : 4:2:0
Битовая глубина : 8 бит
Тип развёртки : Прогрессивная
Метод сжатия : С потерями
Бит/(Пиксели*Кадры) : 0.244
Размер потока : 919 Мбайт (66%)
Библиотека кодирования : XviD 1.2.1 (UTC 2008-12-04)

Аудио #1
Идентификатор : 1
Формат : AC-3
Формат/Информация : Audio Coding 3
Расширение режима : CM (complete main)
Параметр Endianness формата : Big
Идентификатор кодека : 2000
Продолжительность : 1 ч. 16 м.
Вид битрейта : Постоянный
Битрейт : 384 Кбит/сек
Каналы : 6 каналов
Расположение каналов : Front: L C R, Side: L R, LFE
Частота : 48,0 КГц
Битовая глубина : 16 бит
Метод сжатия : С потерями
Размер потока : 209 Мбайт (15%)
Выравнивание : Разделение по промежуткам

Аудио #2
Идентификатор : 2
Формат : AC-3
Формат/Информация : Audio Coding 3
Расширение режима : CM (complete main)
Параметр Endianness формата : Big
Идентификатор кодека : 2000
Продолжительность : 1 ч. 16 м.
Вид битрейта : Постоянный
Битрейт : 384 Кбит/сек
Каналы : 6 каналов
Расположение каналов : Front: L C R, Side: L R, LFE
Частота : 48,0 КГц
Битовая глубина : 16 бит
Метод сжатия : С потерями
Размер потока : 209 Мбайт (15%)
Выравнивание : Разделение по промежуткам
          
info [Профиль]  [ЛС] 

post 10-Мар-2015 09:07 (спустя 44 минуты) [-]0[+]

Топик был перенесен из форума Анонсы в форум Новинки 2014-2015 (Rips)

L
 

post 05-Фев-2016 01:10 (спустя 10 месяцев 25 дней) [-]0[+]

Топик был перенесен из форума Новинки 2014-2015 (Rips) в форум Зарубежные полнометражные мультфильмы

LyaKich
 
Показать сообщения:    
Ответить на тему

Текущее время: 10-Дек 09:05

Часовой пояс: GMT + 4



Вы не можете начинать темы
Вы не можете отвечать на сообщения
Вы не можете редактировать свои сообщения
Вы не можете удалять свои сообщения
Вы не можете голосовать в опросах
Вы не можете прикреплять файлы к сообщениям
Вы не можете скачивать файлы