Ошибка

Хоббит: Битва пяти воинств / The Hobbit: The Battle of the Five Armies (Питер Джексон) [2014, фэнтези, приключения , BDRip 1080p3D]

Ответить на тему
 
Автор Сообщение

koss555

Пол: Пол:Муж

Стаж: 4 года 10 месяцев

Сообщений: 1549

Россия
Рейтинг

post 08-Мар-2015 17:55 3[+]

[Цитировать] 

Хоббит: Битва пяти воинств / The Hobbit: The Battle of the Five Armies
«Последнее путешествие в Средиземье»

Год выпуска: 2014
Страна: Новая Зеландия, США
Жанр: фэнтези, приключения
Продолжительность: 02:24:35
Перевод: Профессиональный (дублированный)
Субтитры: Русские, английские, украинские

Режиссер: Питер Джексон
Сценарий: Фрэнсис Уолш, Филиппа Бойенс, Питер Джексон
Продюсер: Кэролинн Каннингэм, Питер Джексон, Фрэнсис Уолш
Оператор: Эндрю Лесни
Композитор: Говард Шор
Художник: Дэн Хенна, Саймон Брайт, Энди МакЛарен
Монтаж: Джэбез Олссен

В ролях: Мартин Фриман, Иэн МакКеллен, Ричард Армитедж, Люк Эванс, Эванджелин Лилли, Ли Пейс, Орландо Блум, Бенедикт Камбербэтч, Кен Стотт, Эйдан Те

Описание: Когда отряд из тринадцати гномов нанимал хоббита Бильбо Бэгинса в качестве взломщика и четырнадцатого, «счастливого», участника похода к Одинокой горе, Бильбо полагал, что его приключения закончатся, когда он выполнит свою задачу — найдет сокровище, которое так необходимо предводителю гномов Торину. Путешествие в Эребор, захваченное драконом Смаугом королевство гномов, оказалось еще более опасным, чем предполагали гномы и даже Гэндальф — мудрый волшебник, протянувший Торину и его отряду руку помощи.В погоню за гномами устремилась армия орков, ведомых пробудившимся в руинах древним злом, а эльфы и люди, с которыми Бильбо и его товарищам пришлось иметь дело во время путешествия и которые пострадали от последствий желания гномов вернуть свой дом, предъявили права на щедрое вознаграждение — часть сокровищ Одинокой горы. Скоро неподалеку от Одинокой горы встретятся пять армий, и лишь кровопролитная битва определит результаты смелого гномьего похода.

Бюджет: $250 000 000
Сборы в США: $254 456 608
Сборы в мире: + $700 000 000 = $954 456 608
Сборы в России: $30 917 224
Зрители: 5.59 млн 149.1 тыс. 30.4 чел.
Премьера (мир): 1 декабря 2014
Премьера (РФ): 11 декабря 2014, «Каро-Премьер» 3D
Релиз на DVD: 17 апреля 2015 «CP Дистрибуция», «Lizard Cinema Trade»,
Релиз на Blu-Ray: 17 апреля 2015 «CP Дистрибуция»
Рейтинг MPAA:



Качество: BDRip 1080p3D
Формат: MKV
Видео кодек: AVC
Аудио кодеk: AC3
Видео: 1920x1080 (16:9), 23.976 fps, AVC, 13.6 Mbps
Аудио: Аудио #1Русский: AC3, 384 Kbps, 48.0 KHz, 6 ch
Аудио #2Украинский : AC3, 192 Kbps, 48.0 KHz, 2 ch
Аудио #3Английский: DTS, 1 510 Kbps, 48.0 KHz, 6 ch
General
Complete name : Xobit.Batl.5.Armies.2014.D.BDRip.1080p.3D..mkv
Format : Matroska
File size : 16.2 GiB
Duration : 2h 24mn
Overall bit rate : 16.0 Mbps
Encoded date : UTC 2015-03-08 08:31:42
Writing application : mkvmerge v5.2.0 ('I can't explain') built on Dec 18 2011 18:12:03
Writing library : libebml v1.2.3 + libmatroska v1.3.0

Video
ID : 1
Format : AVC
Format/Info : Advanced Video Codec
Format profile : High@L4.1
Format settings, CABAC : Yes
Format settings, ReFrames : 4 frames
Muxing mode : Container profile=Unknown@4.1
Codec ID : V_MPEG4/ISO/AVC
Duration : 2h 24mn
Bit rate : 13.6 Mbps
Width : 1 920 pixels
Height : 1 080 pixels
Display aspect ratio : 16:9
Frame rate : 23.976 fps
Color space : YUV
Chroma subsampling : 4:2:0
Bit depth : 8 bits
Scan type : Progressive
Bits/(Pixel*Frame) : 0.273
Stream size : 13.7 GiB (85%)
Writing library : x264 core 133 r2334kMod a3ac64b
Encoding settings : cabac=1 / ref=4 / deblock=1:-3:-3 / analyse=0x3:0x133 / me=umh / subme=11 / psy=1 / fade_compensate=0.00 / psy_rd=1.00:0.00 / mixed_ref=1 / me_range=24 / chroma_me=1 / trellis=2 / 8x8dct=1 / cqm=0 / deadzone=21,11 / fast_pskip=0 / chroma_qp_offset=-2 / threads=18 / lookahead_threads=3 / sliced_threads=0 / nr=0 / decimate=0 / interlaced=0 / bluray_compat=0 / constrained_intra=0 / bframes=8 / b_pyramid=2 / b_adapt=2 / b_bias=0 / direct=3 / weightb=1 / open_gop=0 / weightp=2 / keyint=250 / keyint_min=23 / scenecut=40 / intra_refresh=0 / rc=crf / mbtree=0 / crf=16.0000 / qcomp=0.65 / qpmin=0 / qpmax=69 / qpstep=4 / frame-packing=4 / ip_ratio=1.20 / pb_ratio=1.10 / aq=3:0.70

Audio #1
ID : 2
Format : AC-3
Format/Info : Audio Coding 3
Mode extension : CM (complete main)
Codec ID : A_AC3
Duration : 2h 24mn
Bit rate mode : Constant
Bit rate : 384 Kbps
Channel(s) : 6 channels
Channel positions : Front: L C R, Side: L R, LFE
Sampling rate : 48.0 KHz
Bit depth : 16 bits
Stream size : 397 MiB (2%)
Title : DUB, iTunes
Language : Russian

Audio #2
ID : 3
Format : AC-3
Format/Info : Audio Coding 3
Mode extension : CM (complete main)
Codec ID : A_AC3
Duration : 2h 24mn
Bit rate mode : Constant
Bit rate : 192 Kbps
Channel(s) : 2 channels
Channel positions : Front: L R
Sampling rate : 48.0 KHz
Bit depth : 16 bits
Stream size : 199 MiB (1%)
Title : DUB, iTunes
Language : Ukrainian

Audio #3
ID : 4
Format : DTS
Format/Info : Digital Theater Systems
Codec ID : A_DTS
Duration : 2h 24mn
Bit rate mode : Constant
Bit rate : 1 510 Kbps
Channel(s) : 6 channels
Channel positions : Front: L C R, Side: L R, LFE
Sampling rate : 48.0 KHz
Bit depth : 24 bits
Stream size : 1.52 GiB (9%)

Text #1
ID : 5
Format : UTF-8
Codec ID : S_TEXT/UTF8
Codec ID/Info : UTF-8 Plain Text
Title : Forced
Language : Russian

Text #2
ID : 6
Format : UTF-8
Codec ID : S_TEXT/UTF8
Codec ID/Info : UTF-8 Plain Text
Title : Forced
Language : Ukrainian

Text #3
ID : 7
Format : UTF-8
Codec ID : S_TEXT/UTF8
Codec ID/Info : UTF-8 Plain Text
Title : 2D

Text #4
ID : 8
Format : UTF-8
Codec ID : S_TEXT/UTF8
Codec ID/Info : UTF-8 Plain Text
Title : 2D SDH

Menu
00:00:00.000 : en:00:00:00.000
00:05:12.395 : en:00:05:12.395
00:12:26.287 : en:00:12:26.287
00:12:58.528 : en:00:12:58.528
00:18:36.657 : en:00:18:36.657
00:23:21.400 : en:00:23:21.400
00:24:35.391 : en:00:24:35.391
00:25:43.625 : en:00:25:43.625
00:27:12.256 : en:00:27:12.256
00:34:30.110 : en:00:34:30.110
00:38:27.722 : en:00:38:27.722
00:39:46.968 : en:00:39:46.968
00:40:57.580 : en:00:40:57.580
00:43:54.507 : en:00:43:54.507
00:49:06.026 : en:00:49:06.026
00:52:36.320 : en:00:52:36.320
00:53:53.188 : en:00:53:53.188
00:56:09.658 : en:00:56:09.658
00:58:04.731 : en:00:58:04.731
01:01:57.964 : en:01:01:57.964
01:07:13.696 : en:01:07:13.696
01:10:00.446 : en:01:10:00.446
01:12:29.887 : en:01:12:29.887
01:16:51.524 : en:01:16:51.524
01:20:05.926 : en:01:20:05.926
info [Профиль]  [ЛС] 

post 08-Мар-2015 17:57 (спустя 1 минута) [-]0[+]

Топик был перенесен из форума Оформление раздач (Кинематограф) в форум Новинки (3D)

koss555
 

doctorx52

Пол: Пол:Муж

Стаж: 6 лет 5 месяцев

Сообщений: 647

Россия
Рейтинг

post 08-Мар-2015 19:37 (спустя 1 час 42 минуты) [-]0[+]

[Цитировать] 

отличный фильм ) а в Hd еще лучше)

_________________
мне пофиг что вы ставите минусы , просто так вы показываете свое неуважение к другим , а сами вы ничего не стоите и мнение сунули куда подальше .... вот и вся дилема
info [Профиль]  [ЛС] 

boev80

Пол: Пол:Муж

Стаж: 3 года 8 месяцев

Сообщений: 1

Рейтинг

post 08-Мар-2015 23:25 (спустя 3 часа) [-]1[+]

[Цитировать] 

у меня не идет(((
info [Профиль]  [ЛС] 

bettda

Пол: Пол:Жен

Стаж: 6 лет 8 месяцев

Сообщений: 11

Албания
Рейтинг

post 08-Мар-2015 23:48 (спустя 22 минуты) [-]1[+]

[Цитировать] 

boev80 писал(а):

у меня не идет(((
на большинстве ТВ без внешних навороченных плееров формат анаморфный Half-SBS не пойдет, ИМХО
например: "4 картинки получается при 3д"

_________________
"Лучшее кино - это вино" (C)
info [Профиль]  [ЛС] 

Sergtx

Пол: Пол:Муж

Стаж: 6 лет 7 месяцев

Сообщений: 41

Россия
Рейтинг

post 09-Мар-2015 20:05 (спустя 20 часов) [-]0[+]

[Цитировать] 

на лыже норм

_________________
info [Профиль]  [ЛС] 

vadium_chel

Пол: Пол:Муж

Стаж: 5 лет 1 месяц

Сообщений: 8

Рейтинг

post 13-Мар-2015 20:45 (спустя 4 дня) [-]0[+]

[Цитировать] 

LG 47LA662V(последняя прошивка) не показывает, подскажите где можно скачать, что бы в 3D посмотреть?
info [Профиль]  [ЛС] 

7_th

Пол: Пол:Муж

Стаж: 4 года 11 месяцев

Сообщений: 3755

Предупреждений: 1

Норфолк
Рейтинг

post 13-Мар-2015 23:34 (спустя 2 часа 49 минут) [-]1[+]

[Цитировать] 

vadium_chel писал(а):

LG 47LA662V(последняя прошивка) не показывает,
Один из ЖК дома почти такой же как у тебя ► LG 47LM660 и всё показывает с винчестера, есессно и эту раздачу. Да и чо ему не показывать, когда тут стандартная раздача фильма HD
Формат: MKV
Руководство пользователя .RUS.pdf Аудио: Аудио #1Русский: AC3, 384 Kbps, 48.0 KHz, 6 ch
Аудио #2Украинский : AC3, 192 Kbps, 48.0 KHz, 2 ch
Аудио #3Английский: DTS, 1 510 Kbps, 48.0 KHz, 6 ch
У некоторых не идёт с третьей дорожкой, идёт картинка без звука, ибо там DTS, эту дорожку мало какой телек берёт, но наши с тобой модели берут DTS звук, ибо стоят немерянно.

у Филипса так вообще DTS видят лишь модели с 14-ого года, хотя наши модели 13-ого
info [Профиль]  [ЛС] 

dimil

Пол: Пол:Муж

Стаж: 5 лет 5 месяцев

Сообщений: 128

Украина
Рейтинг

post 15-Мар-2015 08:51 (спустя 1 день 9 часов) [-]2[+]

[Цитировать] 

Пора уже в правила добавлять что для 3D риплв обязательно нужно указывать тип стереопары и порядок кадров.

_________________
Это - демо-версия поста. В полной версии мои мысли описаны более полно и без орфографических ошибок. Чтобы увидеть полную версию вы должны заплатить мне денег!
info [Профиль]  [ЛС] 

post 13-Май-2015 13:52 (спустя 1 месяц 29 дней) [-]0[+]

Топик был перенесен из форума Новинки (3D) в форум 3D

BZzz
 
Показать сообщения:    
Ответить на тему

Текущее время: 03-Дек 04:24

Часовой пояс: GMT + 4



Вы не можете начинать темы
Вы не можете отвечать на сообщения
Вы не можете редактировать свои сообщения
Вы не можете удалять свои сообщения
Вы не можете голосовать в опросах
Вы не можете прикреплять файлы к сообщениям
Вы не можете скачивать файлы