Ошибка

Город героев / Big Hero 6 (Дон Холл, Крис Уильямс) [2014, мультфильм, фантастика, комедия, семейный, боевик, BDRip] Dub от R.G. TNClub

Ответить на тему
 
Автор Сообщение

R.G. TNClub

Стаж: 2 года 3 месяца

Сообщений: 515

Рейтинг

post 27-Фев-2015 00:20 1[+]

[Цитировать] 

Город героев / Big Hero 6

Страна: США
Жанр: мультфильм, фантастика, комедия, семейный, боевик
Год выпуска: 2014
Продолжительность: 01:41:52
Перевод:
  • Профессиональный (дублированный) [Лицензия iTunes]
Субтитры: ---
Оригинальная дорожка: ---
Главы: ---

Режиссер: Дон Холл, Крис Уильямс
В ролях: Даниил Рагин, Максим Сергеев, Аделина Червякова, Валерий Смекалов, Юлия Руди
Описание: Юный Хиро Хамада — прирожденный изобретатель и гений конструирования роботов. Вместе со старшим братом Тадаши они воплощают в жизнь самые передовые идеи в Техническом университете города будущего Сан-Франсокио. После серии загадочных событий друзья оказываются в центре коварного заговора. Отчаявшись, Хиро решает использовать веселого и добродушного экспериментального робота Бэймакса, перепрограммировав его в неуязвимую боевую машину.

Качество видео: BDRip (энкод by L)
Формат видео: AVI

Видео: XviD 1673 kbps 720 x 304 / 23,976 fps / 2.35:1 / High Profile 4.1
Аудио: 48 kHz, AC3 Dolby Digital, 3/2 (L,C,R,l,r) + LFE ch, ~384 kbps

Раздача от &
Big.Hero.6.2014.1080p.BluRay.AVC.DTS-HD.MA.7.1-HDAccess

Код:

бщее
Полное имя                               : D:\L@TNClub\Gorod.Geroev.2014.BDRip.xvid.rus.RG.TNClub.[by.L].avi
Формат                                   : AVI
Формат/Информация                        : Audio Video Interleave
Размер файла                             : 1,47 Гбайт
Продолжительность                        : 1 ч. 41 м.
Общий поток                              : 2067 Кбит/сек
Программа кодирования                    : VirtualDubMod 1.5.10.2 (build 2542/release)
Библиотека кодирования                   : VirtualDubMod build 2542/release

Видео
Идентификатор                            : 0
Формат                                   : MPEG-4 Visual
Профиль формата                          : Advanced Simple@L5
Параметр BVOP формата                    : 1
Параметр QPel формата                    : Нет
Параметр GMC формата                     : Без точки перехода
Параметр матрицы формата                 : Выборочная
Идентификатор кодека                     : XVID
Идентификатор кодека/Подсказка           : XviD
Продолжительность                        : 1 ч. 41 м.
Битрейт                                  : 1673 Кбит/сек
Ширина                                   : 720 пикселей
Высота                                   : 304 пикселя
Соотношение сторон                       : 2,35:1
Частота кадров                           : 23,976 кадра/сек
Цветовое пространство                    : YUV
Субдискретизация насыщенности            : 4:2:0
Битовая глубина                          : 8 бит
Тип развёртки                            : Прогрессивная
Метод сжатия                             : С потерями
Бит/(Пиксели*Кадры)                      : 0.319
Размер потока                            : 1,19 Гбайт (81%)
Библиотека кодирования                   : XviD 64

Аудио
Идентификатор                            : 1
Формат                                   : AC-3
Формат/Информация                        : Audio Coding 3
Расширение режима                        : CM (complete main)
Параметр Endianness формата              : Big
Идентификатор кодека                     : 2000
Продолжительность                        : 1 ч. 41 м.
Вид битрейта                             : Постоянный
Битрейт                                  : 384 Кбит/сек
Каналы                                   : 6 каналов
Расположение каналов                     : Front: L C R, Side: L R, LFE
Частота                                  : 48,0 КГц
Битовая глубина                          : 16 бит
Метод сжатия                             : С потерями
Размер потока                            : 280 Мбайт (19%)
Выравнивание                             : Разделение по промежуткам
Продолжительность промежутка             : 42  мс. (1,00 видеокадр)
Время предзагрузки промежутка            : 500  мс.
Внимание! Информация о раздаче
При перезаливе указывайте, пож-та, автора рипов L и R.G. TNClub, а также прикрепляйте лычку или баннер.
Пожалуйста, оставайтесь на раздаче как можно дольше!
Релиз специально для Tapochek.net
Все раздачи R.G.TNClub


info [Профиль]  [ЛС] 

post 27-Фев-2015 00:40 (спустя 19 минут) [-]0[+]

Топик был перенесен из форума Оформление раздач (R.G. TNClub) в форум Новинки 2014-2015 (Rips)

L
 

L

Пол: Пол:Муж

Стаж: 6 лет 7 месяцев

Сообщений: 10811

Украина
Рейтинг

post 27-Фев-2015 00:42 (спустя 22 минуты) [-]1[+]

[Цитировать] 

BDRip-AVC и 720p на подходе.

_________________
info [Профиль]  [ЛС] 

C1ron

Пол: Пол:Муж

Стаж: 5 лет 1 месяц

Сообщений: 128

Россия
Рейтинг

post 27-Фев-2015 01:21 (спустя 38 минут) [-]5[+]

[Цитировать] 

L
А вот за этот мульт просто огромное спасибо, девушка хотела посмотреть очень давно, да в кино не срослось сходить(
Надеюсь, не разочарует.
info [Профиль]  [ЛС] 

RufusFromUA

Стаж: 6 лет 9 месяцев

Сообщений: 1025

Предупреждений: 3

Австралия
Рейтинг

post 27-Фев-2015 01:26 (спустя 4 минуты) [-]0[+]

[Цитировать] 

del
info [Профиль]  [ЛС] 

1RoniC0

Пол: Пол:Муж

Стаж: 7 лет 2 месяца

Сообщений: 166

Украина
Рейтинг

post 01-Мар-2015 06:57 (спустя 2 дня 5 часов) [-]0[+]

[Цитировать] 

Рекомендую сие чудо!
Замечательное времяпровождение и куча положительных эмоций после!!!

_________________
info [Профиль]  [ЛС] 

post 25-Апр-2015 18:04 (спустя 1 месяц 24 дня) [-]0[+]

Топик был перенесен из форума Новинки 2014-2015 (Rips) в форум Зарубежные полнометражные мультфильмы

L
 

post 25-Сен-2015 09:42 (спустя 6 месяцев 24 дня) [-]0[+]

Топик был перенесен из форума Зарубежные полнометражные мультфильмы в форум Мультфильмы от R.G. TNclub

L
 
Показать сообщения:    
Ответить на тему

Текущее время: 07-Дек 14:38

Часовой пояс: GMT + 4



Вы не можете начинать темы
Вы не можете отвечать на сообщения
Вы не можете редактировать свои сообщения
Вы не можете удалять свои сообщения
Вы не можете голосовать в опросах
Вы не можете прикреплять файлы к сообщениям
Вы не можете скачивать файлы