Ошибка

Жизнь в стае / Into the Pride / Серии 1-5(5) / [2009 г., Документальный, SATRip] Animal Planet

Ответить на тему
 
Автор Сообщение

D2

Пол: Пол:Муж

Стаж: 5 лет

Сообщений: 382

Россия
Рейтинг

post 25-Фев-2015 22:44 0[+]

[Цитировать] 

Серии: 1-5(5)


Жизнь в стае | Into the Pride


Год выпуска: 2009
Страна: США
Жанр: Документальный
Продолжительность: ~ 00:44:00
Перевод: Профессиональный (одноголосый)
Субтитры: отсутствуют
Режиссёр:
  • Ричард Слейтер-Джонс

В ролях:
  • Дейв Салмони

Описание: Телеканал Animal Planet представляет очередное доказательство того, что человек может установить дружбу с самыми опасными представителями животного мира и остаться при этом живым и невредимым. Передача "Жизнь в стае" - репортаж о сверх экстремальном проекте дрессировщика Дэйва Салмони, осуществленном им в дебрях африканской Намибии. На территории охотничьего заповедника Эринди, Дэйв полгода в буквальном смысле жил в прайде диких львов, славящихся на всю округу своей агрессивностью. Узнайте во всех подробностях, как человек становится своим среди диких зверей, из программы "Жизнь в стае".

Дэйв Салмони – канадский зоолог и дрессировщик больших кошек, известный своими экспериментами по "внедрению" в сообщества диких животных. О ходе этих рискованных проектов зрители разных стран узнают из телепередач, в которых Дейв выступает в роли ведущего и главного действующего лица. Салмони уже общался с африканскими львами в их естественной среде обитания в программе "Жизнь со львами". Во время съемок этого фильма он прожил вместе с царями зверей три месяца, не имея при себе никакого оружия.

В программе "Жизнь в стае" Дэйву предстоит особо сложная задача. Ему необходимо наладить отношения с семьей необычайно агрессивных львов, крайне недружелюбно настроенных по отношению к человеку. Чтобы стать своим в львином прайде, ведущему нужно подружиться с царем здешних мест - доминантным самцом стаи по имени Брутус. Дабы расположить к себе зверя, Дэйв применяет самые неожиданные методы, но эта задача – ничто в сравнении со следующим этапом. "Супруга" Брутуса Клеопатра никак не хочет принять Дэйва за своего...

Этот проект – не просто демонстрация смелости. Львы, с которыми имеет дело Салмони, слишком опасны, и если дрессировщику не удастся перевоспитать животных, весь прайд может быть уничтожен. Задача Дэйва – сохранить ценную популяцию. Кем станет для львов Дэйв – другом или обедом? Узнайте это из программы "Жизнь в стае".

Узнать больше о взаимоотношениях человека и льва вы можете из программы "Жизнь в стае".






  • Качество: SATRip
  • Формат: AVI
  • Видео кодек: XviD
  • Аудио кодек: MP3
  • Видео: 656x368 (1.78:1), 25 fps, ~1500 kbps avg, 0.25 bit/pixel
  • Аудио : 48 kHz, MPEG Layer 3, 2 ch, ~128.00 kbps avg


  1. Закон буша (The Bush Rules)
  2. Два лидера (A Tale Of Two Alphas)
  3. Королева Клео (Queen Cleo)
  4. Прорыв (Breakthrough)
  5. Возвращение домой (Homeward Bound)


- За последние 10 лет в разных странах львами было убито 210 человек.
- Специально лев редко нападает на человека. Людоедами обычно становятся старые самцы, изгнанные из прайда. Люди для них – самая легкая добыча.
- Однажды смотритель заповедника в Кении наблюдал, как двое львов охотились на носорога. Жертва была убита за 20 минут. Вес взрослого льва составляет около 200 кг, вес носорога – 2-3 тонны.
- За один прием взрослый лев может съесть 18 кг мяса.
- При строительстве железной дороги между городами Момбаса и Найроби (Кения) на одном из участков работы долгое время были парализованы: каждую ночь на лагерь строителей совершала налеты пара львов. Всего хищники убили на стройке 28 человек.
- Численность львов в мире сегодня стремительно падает. Причина – браконьерство и разрушение среды обитания львов человеком.
- За последнее время количество львов в Кении сокращалось на 100 особей в год. Через 20 лет эта африканская страна может полностью лишиться этих редких животных.
- В некоторых странах львов используют в целях экотуризма. Например, в индийском штате Гуджарат животных для показа туристам выманивают на открытые лужайки. Делается это при помощи приманок – связанных буйволов, коров и коз. Туристы о приманках не подозревают.
D:\My Video\Doc\Into the Pride.2009.SD\Into.The.Pride.1х01.rus.RG.Doc.Films.avi
General
Complete name : D:\My Video\Doc\Into the Pride.2009.SD\Into.The.Pride.1х01.rus.RG.Doc.Films.avi
Format : AVI
Format/Info : Audio Video Interleave
File size : 515 MiB
Duration : 43mn 52s
Overall bit rate : 1 641 Kbps
Writing application : VirtualDubMod 1.5.10.2 (build 2542/release)
Writing library : VirtualDubMod build 2542/release
Video #0
ID : 0
Format : MPEG-4 Visual
Format profile : Advanced Simple@L5
Format settings, BVOP : 2
Format settings, QPel : No
Format settings, GMC : No warppoints
Format settings, Matrix : Default (H.263)
Muxing mode : Packed bitstream
Codec ID : XVID
Codec ID/Hint : XviD
Duration : 43mn 52s
Bit rate : 1 503 Kbps
Width : 656 pixels
Height : 368 pixels
Display aspect ratio : 0.944
Original display aspect ratio : 16:9
Frame rate : 25.000 fps
Color space : YUV
Chroma subsampling : 4:2:0
Bit depth : 8 bits
Scan type : Progressive
Compression mode : Lossy
Bits/(Pixel*Frame) : 0.249
Stream size : 472 MiB (92%)
Writing library : XviD 1.2.1 (UTC 2008-12-04)
Audio #1
ID : 1
Format : MPEG Audio
Format version : Version 1
Format profile : Layer 3
Mode : Joint stereo
Mode extension : MS Stereo
Codec ID : 55
Codec ID/Hint : MP3
Duration : 43mn 52s
Bit rate mode : Constant
Bit rate : 128 Kbps
Channel count : 2 channels
Sampling rate : 48.0 KHz
Compression mode : Lossy
Stream size : 40.2 MiB (8%)
Alignment : Aligned on interleaves
Interleave, duration : 40 ms (1.00 video frame)
Interleave, preload duration : 504 ms
Writing library : LAME3.98 (alpha)
info [Профиль]  [ЛС] 

post 26-Фев-2015 09:32 (спустя 10 часов) [-]0[+]

Топик был перенесен из форума Анонсы в форум Документальные фильмы и телепередачи

L
 
Показать сообщения:    
Ответить на тему

Текущее время: 06-Дек 18:15

Часовой пояс: GMT + 4



Вы не можете начинать темы
Вы не можете отвечать на сообщения
Вы не можете редактировать свои сообщения
Вы не можете удалять свои сообщения
Вы не можете голосовать в опросах
Вы не можете прикреплять файлы к сообщениям
Вы не можете скачивать файлы