Ошибка

Три богатыря: Ход конем (Константин Феоктистов) [2014, мультфильм, комедия, приключения, фэнтези, BDRip]

Ответить на тему
 
Автор Сообщение

L

Пол: Пол:Муж

Стаж: 6 лет 8 месяцев

Сообщений: 10835

Украина
Рейтинг

post 24-Фев-2015 16:16 1[+]

[Цитировать] 

Три богатыря: Ход конем

Название: Три богатыря: Ход конем
Страна: Россия
Студия: Кинокомпания CTB, Анимационная студия Мельница
Год выхода: 2014
Жанр: мультфильм, комедия, приключения, фэнтези
Продолжительность: 01:14:42
Перевод: Оригинальный
Субтитры: нет

Режиссер: Константин Феоктистов
В ролях: Сергей Маковецкий, Дмитрий Высоцкий, Дмитрий Нагиев, Олег Куликович, Валерий Соловьев, Дмитрий Быковский-Ромашов, Гоша Куценко, Наргиз Закирова, Анатолий Петров, Лия Медведева

О фильме: Придворный конь Гай Юлий Цезарь на свою беду подслушивает разговор бояр и узнает о заговоре против князя. Что же делать? Защитить-то князя некому! Богатыри далеко — ловят разбойника Потаню, Горыныч в отпуске, войско на учениях… Но если плохие парни собираются захватить мир, то кому-то же надо его спасти? Кто же он, настоящий герой, который придет на помощь? Конечно, конь Юлий! Настоящий стратег и «великий комбинатор». Он непременно всех спасет, а если не спасет, то хотя бы постарается. Главное, чтобы операция по спасению мира не обернулась полной катастрофой.



Качество: BDRip
Формат: AVI
Видео: 2161 Kb/s, 720х384, XviD
Аудио: AC3, 6 ch, 448 Кбит/с
Sample
Общее
Уникальный идентификатор : 243042120127375186460682016283742267381 (0xB6D835AE3F8CBE479975CEB6CA6D67F5)
Полное имя : D:\Тапкораздачи\B0gat1r1.2014.O.BDrip.x264.Rus-V!ckNet.mkv
Формат : Matroska
Версия формата : Version 2
Размер файла : 1,36 Гбайт
Продолжительность : 1 ч. 14 м.
Общий поток : 2606 Кбит/сек
Дата кодирования : UTC 2015-02-23 21:40:46
Программа кодирования : mkvmerge v7.0.0 ('Where We Going') 32bit built on Jun 9 2014 15:08:34
Библиотека кодирования : libebml v1.3.0 + libmatroska v1.4.1

Видео
Идентификатор : 1
Формат : AVC
Формат/Информация : Advanced Video Codec
Профиль формата : High@L4.1
Параметр CABAC формата : Да
Параметр ReFrames формата : 9 кадров
Идентификатор кодека : V_MPEG4/ISO/AVC
Продолжительность : 1 ч. 14 м.
Битрейт : 2168 Кбит/сек
Ширина : 720 пикселей
Высота : 384 пикселя
Соотношение сторон : 1,85:1
Режим частоты кадров : Постоянный
Частота кадров : 24,000 кадра/сек
Цветовое пространство : YUV
Субдискретизация насыщенности : 4:2:0
Битовая глубина : 8 бит
Тип развёртки : Прогрессивная
Бит/(Пиксели*Кадры) : 0.327
Размер потока : 1,10 Гбайт (81%)
Библиотека кодирования : x264 core 142 r2431 ac76440
Настройки программы : cabac=1 / ref=9 / deblock=1:-3:-3 / analyse=0x3:0x113 / me=umh / subme=8 / psy=1 / psy_rd=1.09:0.15 / mixed_ref=1 / me_range=32 / chroma_me=1 / trellis=1 / 8x8dct=1 / cqm=0 / deadzone=21,11 / fast_pskip=1 / chroma_qp_offset=-2 / threads=10 / lookahead_threads=2 / sliced_threads=0 / nr=0 / decimate=1 / interlaced=0 / bluray_compat=0 / constrained_intra=0 / bframes=6 / b_pyramid=2 / b_adapt=2 / b_bias=0 / direct=1 / weightb=1 / open_gop=0 / weightp=2 / keyint=240 / keyint_min=22 / scenecut=40 / intra_refresh=0 / rc_lookahead=50 / rc=2pass / mbtree=1 / bitrate=2168 / ratetol=1.0 / qcomp=0.60 / qpmin=10 / qpmax=51 / qpstep=4 / cplxblur=20.0 / qblur=0.5 / vbv_maxrate=50000 / vbv_bufsize=62500 / nal_hrd=none / filler=0 / ip_ratio=1.40 / aq=1:1.00
Язык : English
Default : Да
Forced : Нет
Коэффициенты матрицы : BT.709
colour_range : Limited

Аудио
Идентификатор : 2
Формат : AC-3
Формат/Информация : Audio Coding 3
Расширение режима : CM (complete main)
Параметр Endianness формата : Big
Идентификатор кодека : A_AC3
Продолжительность : 1 ч. 14 м.
Вид битрейта : Постоянный
Битрейт : 448 Кбит/сек
Каналы : 6 каналов
Расположение каналов : Front: L C R, Side: L R, LFE
Частота : 48,0 КГц
Битовая глубина : 16 бит
Метод сжатия : С потерями
Размер потока : 239 Мбайт (17%)
Язык : Russian
Default : Да
Forced : Нет
info [Профиль]  [ЛС] 

c.asper

Пол: Пол:Муж

Стаж: 7 лет 8 месяцев

Сообщений: 29

Россия
Рейтинг

post 25-Фев-2015 20:11 (спустя 1 день 3 часа) [-]3[+]

[Цитировать] 

Ходил с ребенком в кино, даже ему не понравилось, хотя любит эту тему.
Печально, но каждый последующий мультик хуже предыдущего.
info [Профиль]  [ЛС] 

Aceko

Пол: Пол:Муж

Стаж: 4 года 11 месяцев

Сообщений: 16

Украина
Рейтинг

post 17-Мар-2015 21:59 (спустя 20 дней) [-]0[+]

[Цитировать] 

 !  L:
!
info [Профиль]  [ЛС] 

Radik

Пол: Пол:Муж

Стаж: 6 лет 2 месяца

Сообщений: 46

Рейтинг

post 17-Мар-2015 22:31 (спустя 31 минута) [-]0[+]

[Цитировать] 

boogatyeru_xod_konjyoum

_________________
Tempus Edax Rerum
info [Профиль]  [ЛС] 

softdemon

Пол: Пол:Муж

Стаж: 7 лет 1 месяц

Сообщений: 49

Россия
Рейтинг

post 20-Мар-2015 23:59 (спустя 3 дня) [-]1[+]

[Цитировать] 

c.asper писал(а):

Ходил с ребенком в кино, даже ему не понравилось, хотя любит эту тему.
Печально, но каждый последующий мультик хуже предыдущего.
ну а что ты хотел? первые серии норм, а потом только капусту рубят...

_________________
info [Профиль]  [ЛС] 

husbis

Пол: Пол:Муж

Стаж: 3 года 7 месяцев

Сообщений: 16

СССР
Рейтинг

post 08-Май-2015 16:17 (спустя 1 месяц 18 дней) [-]0[+]

[Цитировать] 

Формат не AVI а MKV.
info [Профиль]  [ЛС] 

lampard960

Пол: Пол:Муж

Стаж: 4 года 11 месяцев

Сообщений: 620

Ангилья
Рейтинг

post 24-Июн-2015 07:40 (спустя 1 месяц 15 дней) [-]1[+]

[Цитировать] 

они хотели закончить еще на третьем мультике. но их понесло за баблом судя по всему. последняя часть просто отвратная. лучшие части , когда они поодиночке. ну и про царицу неплохо

_________________
info [Профиль]  [ЛС] 

post 05-Фев-2016 01:16 (спустя 7 месяцев 10 дней) [-]0[+]

Топик был перенесен из форума Новинки 2014-2015 (Rips) в форум Отечественные полнометражные мультфильмы

LyaKich
 
Показать сообщения:    
Ответить на тему

Текущее время: 09-Дек 13:38

Часовой пояс: GMT + 4



Вы не можете начинать темы
Вы не можете отвечать на сообщения
Вы не можете редактировать свои сообщения
Вы не можете удалять свои сообщения
Вы не можете голосовать в опросах
Вы не можете прикреплять файлы к сообщениям
Вы не можете скачивать файлы