Ошибка

Алдноа Зеро / Aldnoah.Zero [ТВ-1][1-12 из 12][2014][приключения, фантастика, меха][HDTVRip][720p][Любительский]

Ответить на тему
 
Автор Сообщение

RedDragon

Пол: Пол:Муж

Стаж: 6 лет 9 месяцев

Сообщений: 47

Россия
Рейтинг

post 23-Фев-2015 11:45 0[+]

[Цитировать] 

pic="http://i058.radikal.ru/1502/85/a88f80fb2907.jpg"
Алдноа Зеро
Aldnoah Zero

Год выпуска: c 06.07.2014 по 21.09.2014
Страна:
Жанр: приключения, фантастика, меха
Тип: ТВ
Продолжительность: ~ 23-25 мин./серия
Студия: A-1 Pictures
Режиссер: Аоки Эй
Автор оригинала: Уробути Гэн
Перевод: Anidub
Озвучено:JAM, Holly
Качество: HDTV-Rip| Хардсаб: Отсутствует| Формат: MP4
Видео:
(H264) 1280x720 23.976fps ~1600kbps
Аудио:
RUS : AAC 48000Hz stereo 192kbps
Описание:
Причина прекращения лунных программ будоражит многие умы, и в этом аниме показана альтернативная версия событий. В 1972 году миссия «Аполлон-17» обнаружила на поверхности нашего спутника космические врата. Через них можно в одно мгновенье переместиться на Марс. Разумеется, ученые считают это подарком свыше, ведь колонизация Красной планеты ранее была несбыточной мечтой, до Луны же добраться намного проще.
Через врата устремляются целые караваны астронавтов, поселенцев, строителей – всех тех, кто должен будет создать там колонию. Будет ли успешной эта колонизация? Инфраструктура Марса развивается очень быстро, и из колонии он превращается в самостоятельную планету со своим правительством, своими законами, своей армией…
И спустя несколько десятилетий земные выходцы, заселившие Красную планету, объявляют войну Земле. Что послужило причиной этому? Никто не знает, но люди пошли войной на людей, построив гигантские машины, спускающиеся с небес и истребляющие всё на поверхности нашей планеты. Причин агрессии завоеватели не называют, но цели очевидны. Армии земных государств объединяют усилия и дают отпор неожиданному агрессору, но дальнейшая судьба обоих миров неизвестна…

1. Princess of Vers
2. Beyond the Horizon
3. The Children`s Echelon
4. Point of No Return
5. Phantom of the Emperor
6. Steel Step Suite
7. The Boys of Earth
8. Then and Now
9. Darkness Visible
10. Before the War
11. Wind, Snow and Stars
12. Childhood`s End
Формат : MPEG-4
Профиль формата : Base Media
Идентификатор кодека : isom
Размер файла : 366 Мбайт
Продолжительность : 23 м.
Режим общего битрейта : Переменный
Общий поток : 2135 Кбит/сек
Дата кодирования : UTC 2014-07-28 19:02:44
Дата пометки : UTC 2014-07-28 19:02:44
Программа кодирования : Yamb 2.1.0.0 [http://yamb.unite-video.com]

Видео
Идентификатор : 1
Формат : AVC
Формат/Информация : Advanced Video Codec
Профиль формата : High@L4.1
Параметр CABAC формата : Да
Параметр ReFrames формата : 4 кадра
Идентификатор кодека : avc1
Идентификатор кодека/Информация : Advanced Video Coding
Продолжительность : 23 м.
Битрейт : 1939 Кбит/сек
Максимальный битрейт : 14,2 Мбит/сек
Ширина : 1280 пикселей
Высота : 720 пикселей
Соотношение сторон : 16:9
Режим частоты кадров : Постоянный
Частота кадров : 23,976 кадра/сек
Цветовое пространство : YUV
Субдискретизация насыщенности : 4:2:0
Битовая глубина : 8 бит
Тип развёртки : Прогрессивная
Бит/(Пиксели*Кадры) : 0.088
Размер потока : 333 Мбайт (91%)
Заголовок : 264
Библиотека кодирования : x264 core 129 r2245+729M 1a52e03
Настройки программы : cabac=1 / ref=4 / deblock=1:1:-1 / analyse=0x3:0x113 / me=umh / subme=9 / psy=1 / fade_compensate=0.00 / psy_rd=1.00:0.00 / mixed_ref=1 / me_range=24 / chroma_me=1 / trellis=2 / 8x8dct=1 / cqm=0 / deadzone=21,11 / fast_pskip=1 / chroma_qp_offset=-2 / threads=8 / lookahead_threads=1 / sliced_threads=0 / nr=0 / decimate=1 / interlaced=0 / bluray_compat=0 / constrained_intra=0 / fgo=0 / bframes=9 / b_pyramid=2 / b_adapt=2 / b_bias=0 / direct=1 / weightb=1 / open_gop=0 / weightp=2 / keyint=240 / keyint_min=24 / scenecut=40 / intra_refresh=0 / rc=crf / mbtree=0 / crf=18.0 / qcomp=0.72 / qpmin=0 / qpmax=69 / qpstep=4 / ip_ratio=1.40 / pb_ratio=1.30 / aq=1:0.85
Дата кодирования : UTC 2014-07-26 17:54:15
Дата пометки : UTC 2014-07-28 19:02:54
Основные цвета : BT.709
Характеристики трансфера : BT.709
Коэффициенты матрицы : BT.709
colour_range : Limited

Аудио
Идентификатор : 2
Формат : AAC
Формат/Информация : Advanced Audio Codec
Профиль формата : LC
Идентификатор кодека : 40
Продолжительность : 23 м.
Вид битрейта : Переменный
Битрейт : 192 Кбит/сек
Максимальный битрейт : 196 Кбит/сек
Каналы : 2 канала
Расположение каналов : Front: L R
Частота : 48,0 КГц
Метод сжатия : С потерями
Размер потока : 33,0 Мбайт (9%)
Язык : Russian
info [Профиль]  [ЛС] 

post 23-Фев-2015 23:16 (спустя 11 часов) [-]0[+]

Топик был перенесен из форума Анонсы в форум HD Rips

Алмаз
 

Nova007

Пол: Пол:Муж

Стаж: 5 лет 4 месяца

Сообщений: 129

Россия
Рейтинг

post 24-Фев-2015 00:24 (спустя 12 часов) [-]-1[+]

[Цитировать] 

Неплохой сериал со всеми космическими штампами!
info [Профиль]  [ЛС] 

X Zero

Пол: Пол:Муж

Стаж: 5 лет 11 месяцев

Сообщений: 210

Предупреждений: 1

Россия
Рейтинг

post 26-Фев-2015 01:04 (спустя 2 дня) [-]0[+]

[Цитировать] 

Поглядел. Полная мутотень. Сюжет высосан из пальца+ куча абсурда(и это слабо сказано).
Герои серые болванчики.
Чего тока стоит ГГ...


имхо 5 из 10. не выше. :\
info [Профиль]  [ЛС] 

RedDragon

Пол: Пол:Муж

Стаж: 6 лет 9 месяцев

Сообщений: 47

Россия
Рейтинг

post 26-Фев-2015 16:12 (спустя 15 часов) [-]0[+]

[Цитировать] 

"На вкус и цвет ..... Все фломастеры разные."
info [Профиль]  [ЛС] 
Показать сообщения:    
Ответить на тему

Текущее время: 09-Дек 08:02

Часовой пояс: GMT + 4



Вы не можете начинать темы
Вы не можете отвечать на сообщения
Вы не можете редактировать свои сообщения
Вы не можете удалять свои сообщения
Вы не можете голосовать в опросах
Вы не можете прикреплять файлы к сообщениям
Вы не можете скачивать файлы