Ошибка

Губка Боб в 3D / The SpongeBob Movie: Sponge Out of Water (Пол Тиббит ) [2015, мультфильм, комедия, приключения, TS, Дубляж]

Ответить на тему
 
Автор Сообщение

Alcolil

Пол: Пол:Муж

Стаж: 1 год 10 месяцев

Сообщений: 21

Россия
Рейтинг

post 21-Фев-2015 15:22 0[+]

[Цитировать] 

Губка Боб в 3D / The SpongeBob Movie: Sponge Out of Water
«Всё квадратное станет явным»


ИНФОРМАЦИЯ:
Год выпуска: 2015
Страна: США
Жанр: мультфильм, комедия, приключения, семейный
Длительность: 01:23:15
Перевод: Дубляж
Режиссер: Пол Тиббит
В Ролях:
Антонио Бандерас (Burger Beard), Том Кенни (SpongeBob / Gary / Agreeable Mob Member / Waffle, озвучка, озвучка), Эрик Бауза (Seagull, озвучка, озвучка), Тим Конуэй (Seagull, озвучка, озвучка), Эдди Дизен (Seagull, озвучка, озвучка), Роб Полсен (Seagull, озвучка, озвучка), Кевин Майкл Ричардсон (Seagull, озвучка, озвучка), Эйприл Стюарт (Seagull, озвучка, озвучка), Кри Саммер (Seagull, озвучка, озвучка), Билли Уэст (Seagull, озвучка, озвучка), Карлос Аласраки (Seagull / Dead Parrot, озвучка, озвучка), Нолан Норт (Seagull / Dead Parrot / Pigeon Cabbie, озвучка, озвучка)

ОПИСАНИЕ:
Всемирный любимчик со дна океана Губка Боб Квадратные Штаны должен спасти свой глубоководный мир, но для этого ему и его друзьям придется выбраться на сушу и оказаться в нашем.

ТЕХ.ДАННЫЕ:


Качество: TS Формат: AVI ✦ Видео кодек: XviD ✦ Аудио кодек: MP3
Видео: 720x384 (1.875)| 1953 kbps| 23,976 fps| 0,281 bpp
Аудио №1: 2.0 | 44 kHz | 192 kbps |Russian
Аудио №2: 2.0 | 48 kHz | 192 kbps | English
Код:
General
Название : D:\Торенты\Gubka.Bob.3D.2015.D.TS.1400MB.avi
Формат : AVI
Формат/Info : Audio Video Interleave
Размер файла : 1.37 GiB
Длительность : 1h 23mn
Общий Битрейт mode : Variable
Общий Битрейт : 2 351 Kbps
Создано приложением : VirtualDubMod 1.5.10.2 (build 2540/release)
Writing library : VirtualDubMod build 2540/release

Video
ID : 0
Формат : MPEG-4 Visual
Формат profile : Advanced Simple@L5
Формат настройки, BVOP : 2
Формат настройки, QPel : No
Формат настройки, GMC : No warppoints
Формат настройки, Matrix : Default (H.263)
Кодек ID : XVID
Кодек ID/Hint : XviD
Длительность : 1h 23mn
Битрейт : 1953Kbps
Width : 720 пикселей
Высота : 384 пикселей
Соотношение кадра : 1.875
Частота кадров : 23.976 fps
Цветопередача : YUV
Chroma subsampling : 4:2:0
Разрядность : 8 bits
Тип сканирования : Progressive
Режим сжатия : Lossy
Bits/(Pixel*Frame) : 0.281
Размер потока : 1.08 GiB (79%)
Writing library : XviD 65

Audio #1
ID : 1
Формат : MPEG Audio
Формат version : Version 1
Формат profile : Layer 3
Кодек ID : 55
Кодек ID/Hint : MP3
Длительность : 1h 23mn
Битрейт mode : Constant
Битрейт : 192 Kbps
Каналы(s) : 2 канала
Частота : 44.1 KHz
Режим сжатия : Lossy
Размер потока : 114 MiB (8%)
Выравнивание : Split accross interleaves

Audio #2
ID : 2
Формат : MPEG Audio
Формат version : Version 1
Формат profile : Layer 3
Mode : Joint stereo
Расширение режима : MS Stereo
Кодек ID : 55
Кодек ID/Hint : MP3
Длительность : 1h 23mn
Битрейт mode : Variable
Битрейт : 192 Kbps
Каналы(s) : 2 канала
Частота : 48.0 KHz
Режим сжатия : Lossy
Размер потока : 114 MiB (8%)
Выравнивание : Split accross interleaves
info [Профиль]  [ЛС] 

koss555

Пол: Пол:Муж

Стаж: 4 года 11 месяцев

Сообщений: 1549

Россия
Рейтинг

post 22-Фев-2015 18:58 (спустя 1 день 3 часа) [-]0[+]

[Цитировать] 

 !  koss555:
http://tapochek.net/viewtopic.php?t=28799 скрины в PNG сэмпл

_________________
info [Профиль]  [ЛС] 
Показать сообщения:    
Ответить на тему

Текущее время: 08-Дек 20:05

Часовой пояс: GMT + 4



Вы не можете начинать темы
Вы не можете отвечать на сообщения
Вы не можете редактировать свои сообщения
Вы не можете удалять свои сообщения
Вы не можете голосовать в опросах
Вы не можете прикреплять файлы к сообщениям
Вы не можете скачивать файлы