Ошибка

Пингвины Мадагаскара / Penguins of Madagascar (Эрик Дарнелл, Саймон Дж. Смит) [2014, Мультфильм, комедия, приключения, семейный, полнометражный, BDRip] от R.G. TNClub

Ответить на тему
 
Автор Сообщение

R.G. TNClub

Стаж: 2 года 3 месяца

Сообщений: 515

Рейтинг

post 17-Фев-2015 07:58 0[+]

[Цитировать] 

Пингвины Мадагаскара / Penguins of Madagascar

Страна: США, DreamWorks Animation, Pacific Data Images (PDI)
Жанр: Мультфильм, комедия, приключения, семейный, полнометражный
Год выпуска: 2014
Продолжительность: 01:32:19
Перевод:
  • Профессиональный (дублированный) [Лицензия iTunes ]
Субтитры: ---
Оригинальная дорожка: ---
Главы: ---

Режиссер: Эрик Дарнелл, Саймон Дж. Смит
В ролях: Том МакГрат (Tom McGrath), Крис Миллер (Chris Miller), Кристофер Найтс (Christopher Knights), Конрад Вернон (Conrad Vernon), Джон Малкович (John Malkovich), Бенедикт Камбербэтч (Benedict Cumberbatch), Кен Жонг (Ken Jeong), Аннет Махендру (Annet Mahendru)
Описание: Четвёрка пингвинов-шпионов — Шкипер, Ковальски, Рико и Прапор — объединяется с командой «Северный ветер», помогающей беззащитным животным. Им предстоит остановить злобного осьминога, доктора Октавиуса Брайна, желающего уничтожить этот мир…

Качество видео: BDRip (энкод L)
Формат видео: AVI

Видео: XviD Video 5699 kbps 720 x 384 / 23,976 fps / 2.40:1 / High Profile 4.1
Аудио: 48 kHz, AC3 Dolby Digital, 3/2 (L,C,R,l,r) + LFE ch, ~384 kbps

Раздача от &
P1ngU1n1.Madagaskara.2014.D.BDRemux

Код:

Общее
Полное имя                               : D:\L@TNClub\Pingviny.Madagaskara.2014.BDRip.xvid.rus.RG.TNClub[by.L].avi
Формат                                   : AVI
Формат/Информация                        : Audio Video Interleave
Размер файла                             : 1,47 Гбайт
Продолжительность                        : 1 ч. 32 м.
Общий поток                              : 2274 Кбит/сек
Программа кодирования                    : VirtualDubMod 1.5.10.2 (build 2542/release)
Библиотека кодирования                   : VirtualDubMod build 2542/release

Видео
Идентификатор                            : 0
Формат                                   : MPEG-4 Visual
Профиль формата                          : Advanced Simple@L5
Параметр BVOP формата                    : 1
Параметр QPel формата                    : Нет
Параметр GMC формата                     : Без точки перехода
Параметр матрицы формата                 : Выборочная
Идентификатор кодека                     : XVID
Идентификатор кодека/Подсказка           : XviD
Продолжительность                        : 1 ч. 32 м.
Битрейт                                  : 1883 Кбит/сек
Ширина                                   : 720 пикселей
Высота                                   : 384 пикселя
Соотношение сторон                       : 1,85:1
Частота кадров                           : 23,976 кадра/сек
Цветовое пространство                    : YUV
Субдискретизация насыщенности            : 4:2:0
Битовая глубина                          : 8 бит
Тип развёртки                            : Прогрессивная
Метод сжатия                             : С потерями
Бит/(Пиксели*Кадры)                      : 0.284
Размер потока                            : 1,21 Гбайт (83%)
Библиотека кодирования                   : XviD 64

Аудио
Идентификатор                            : 1
Формат                                   : AC-3
Формат/Информация                        : Audio Coding 3
Расширение режима                        : CM (complete main)
Параметр Endianness формата              : Big
Идентификатор кодека                     : 2000
Продолжительность                        : 1 ч. 31 м.
Вид битрейта                             : Постоянный
Битрейт                                  : 384 Кбит/сек
Каналы                                   : 6 каналов
Расположение каналов                     : Front: L C R, Side: L R, LFE
Частота                                  : 48,0 КГц
Битовая глубина                          : 16 бит
Метод сжатия                             : С потерями
Размер потока                            : 252 Мбайт (17%)
Выравнивание                             : Разделение по промежуткам
Продолжительность промежутка             : 42  мс. (1,01 видеокадр)
Время предзагрузки промежутка            : 500  мс.
Внимание! Информация о раздаче
При перезаливе указывайте, пож-та, автора рипов L и R.G. TNClub, а также прикрепляйте лычку или баннер.
Пожалуйста, оставайтесь на раздаче как можно дольше!
Релиз специально для Tapochek.net
Все раздачи R.G.TNClub


info [Профиль]  [ЛС] 

post 17-Фев-2015 07:59 (спустя 58 секунд) [-]0[+]

Топик был перенесен из форума Оформление раздач (R.G. TNClub) в форум Новинки 2014-2015 (Rips)

L
 

kaktus489

Стаж: 3 года 10 месяцев

Сообщений: 47

Норвегия
Рейтинг

post 20-Фев-2015 22:42 (спустя 3 дня) [-]0[+]

[Цитировать] 

Нормальный мульт, а ханжей и эстэтов просьба смотреть другое.

_________________
Борьба с пиратством - это когда со злыми дядями, которые бесплатно качают музыку и фильмы, борются добрые дяди, которые бесплатно качают нефть и газ.
info [Профиль]  [ЛС] 

post 25-Апр-2015 18:01 (спустя 2 месяца 4 дня) [-]0[+]

Топик был перенесен из форума Новинки 2014-2015 (Rips) в форум Зарубежные полнометражные мультфильмы

L
 

post 25-Сен-2015 09:42 (спустя 7 месяцев 4 дня) [-]0[+]

Топик был перенесен из форума Зарубежные полнометражные мультфильмы в форум Мультфильмы от R.G. TNclub

L
 
Показать сообщения:    
Ответить на тему

Текущее время: 05-Дек 06:33

Часовой пояс: GMT + 4



Вы не можете начинать темы
Вы не можете отвечать на сообщения
Вы не можете редактировать свои сообщения
Вы не можете удалять свои сообщения
Вы не можете голосовать в опросах
Вы не можете прикреплять файлы к сообщениям
Вы не можете скачивать файлы