Ошибка

Пингвины Мадагаскара / Penguins of Madagascar (Эрик Дарнелл, Саймон Дж. Смит) [2014, Мультфильм, комедия, приключения, семейный, полнометражный, BDRip 720p]

Ответить на тему
 
Автор Сообщение

L

Пол: Пол:Муж

Стаж: 6 лет 7 месяцев

Сообщений: 10765

Украина
Рейтинг

post 16-Фев-2015 21:09 0[+]

[Цитировать] 

Пингвины Мадагаскара/ Penguins of Madagascar

Год выпуска: 2014
Жанр: Мультфильм, комедия, приключения, семейный, полнометражный
Выпущено: США, DreamWorks Animation, Pacific Data Images (PDI)
Продолжительность: 01:32:19
Перевод: Дублированный [Лицензия]

Режиссер: Эрик Дарнелл, Саймон Дж. Смит
В ролях: Том МакГрат, Крис Миллер, Кристофер Найтс, Бенедикт Камбербэтч, Петер Стормаре, Джон Малкович, Кен Жонг, Аннет Махендру
О фильме: Сверхсекретные операции, железная дисциплина и выдержка, а главное, феноменальная находчивость — вот критерии успешной миссии, даже если она кажется невыполнимой.
Качество: BDRip 720p
Формат: MKV
Видео: MPEG-4 AVC, 5445 Кбит/с, 1280x690
Аудио: Русский ,английский (AC3, 6 ch, 384 Кбит/с)
Общее
Уникальный идентификатор : 249924051479785274467894570280382099475 (0xBC059F17CA1F34BF833379645877F013)
Полное имя : D:\Тапкораздачи\P1ngU1n1.Madagaskara.2014.D.BDRip.720p.mkv
Формат : Matroska
Версия формата : Version 2
Размер файла : 4,09 Гбайт
Продолжительность : 1 ч. 32 м.
Общий поток : 6339 Кбит/сек
Дата кодирования : UTC 2015-02-16 16:10:30
Программа кодирования : mkvmerge v7.6.0 ('Garden of Dreams') 64bit built on Feb 8 2015 13:04:34
Библиотека кодирования : libebml v1.3.1 + libmatroska v1.4.2
_STATISTICS_WRITING_APP : mkvmerge v7.6.0 ('Garden of Dreams') 64bit built on Feb 8 2015 13:04:34
_STATISTICS_WRITING_DATE_UTC : 2015-02-16 16:10:30
_STATISTICS_TAGS : BPS DURATION NUMBER_OF_FRAMES NUMBER_OF_BYTES
DURATION : 01:32:19.618000000
NUMBER_OF_FRAMES : 132818
NUMBER_OF_BYTES : 3850963844

Видео
Идентификатор : 1
Формат : AVC
Формат/Информация : Advanced Video Codec
Профиль формата : High@L4.1
Параметр CABAC формата : Да
Параметр ReFrames формата : 4 кадра
Идентификатор кодека : V_MPEG4/ISO/AVC
Продолжительность : 1 ч. 32 м.
Битрейт : 5445 Кбит/сек
Ширина : 1280 пикселей
Высота : 690 пикселей
Соотношение сторон : 1,85:1
Режим частоты кадров : Постоянный
Частота кадров : 23,976 кадра/сек
Цветовое пространство : YUV
Субдискретизация насыщенности : 4:2:0
Битовая глубина : 8 бит
Тип развёртки : Прогрессивная
Бит/(Пиксели*Кадры) : 0.257
Размер потока : 3,51 Гбайт (86%)
Default : Да
Forced : Нет

Аудио #1
Идентификатор : 2
Формат : AC-3
Формат/Информация : Audio Coding 3
Расширение режима : CM (complete main)
Параметр Endianness формата : Big
Идентификатор кодека : A_AC3
Продолжительность : 1 ч. 32 м.
Вид битрейта : Постоянный
Битрейт : 384 Кбит/сек
Каналы : 6 каналов
Расположение каналов : Front: L C R, Side: L R, LFE
Частота : 48,0 КГц
Битовая глубина : 16 бит
Метод сжатия : С потерями
Размер потока : 254 Мбайт (6%)
Язык : Russian
Default : Да
Forced : Нет

Аудио #2
Идентификатор : 3
Формат : AC-3
Формат/Информация : Audio Coding 3
Расширение режима : CM (complete main)
Параметр Endianness формата : Big
Идентификатор кодека : A_AC3
Продолжительность : 1 ч. 32 м.
Вид битрейта : Постоянный
Битрейт : 384 Кбит/сек
Каналы : 6 каналов
Расположение каналов : Front: L C R, Side: L R, LFE
Частота : 48,0 КГц
Битовая глубина : 16 бит
Метод сжатия : С потерями
Размер потока : 254 Мбайт (6%)
Язык : English
Default : Нет
Forced : Нет

Текст #1
Идентификатор : 4
Формат : PGS
Режим смешивания : zlib
Идентификатор кодека : S_HDMV/PGS
Идентификатор кодека/Информация : The same subtitle format used on BDs/HD-DVDs
Язык : English
Default : Нет
Forced : Нет

Текст #2
Идентификатор : 5
Формат : PGS
Режим смешивания : zlib
Идентификатор кодека : S_HDMV/PGS
Идентификатор кодека/Информация : The same subtitle format used on BDs/HD-DVDs
Язык : English
Default : Нет
Forced : Нет

Меню
00:00:00.000 : en:Chapter 1
00:07:41.624 : en:Chapter 2
00:15:23.249 : en:Chapter 3
00:23:04.874 : en:Chapter 4
00:30:46.498 : en:Chapter 5
00:38:28.123 : en:Chapter 6
00:46:09.748 : en:Chapter 7
00:53:51.373 : en:Chapter 8
01:01:32.997 : en:Chapter 9
01:09:14.622 : en:Chapter 10
01:16:56.247 : en:Chapter 11
01:24:37.872 : en:Chapter 12
info [Профиль]  [ЛС] 

FreeWind94

Пол: Пол:Муж

Стаж: 2 года 5 месяцев

Сообщений: 5

Россия
Рейтинг

post 17-Фев-2015 00:55 (спустя 3 часа) [-]-1[+]

[Цитировать] 

эм... аваст ругается на 4 картинки с этой страницы О_о
info [Профиль]  [ЛС] 

ArconWarl

Пол: Пол:Муж

Стаж: 3 года 11 месяцев

Сообщений: 132

Предупреждений: 1

Рейтинг

post 10-Мар-2015 16:11 (спустя 21 день) [-]-1[+]

[Цитировать] 

FreeWind94 писал(а):

эм... аваст ругается на 4 картинки с этой страницы О_о
Он имеет ввиду, что развидеть их уже нельзя будет.
info [Профиль]  [ЛС] 

post 05-Фев-2016 23:55 (спустя 10 месяцев 26 дней) [-]0[+]

Топик был перенесен из форума Новинки 2014-2015 (Web-DL, DVD, HD DVD, Blu-ray, HD Rips) в форум Мультфильмы (HD Video)

LyaKich
 
Показать сообщения:    
Ответить на тему

Текущее время: 04-Дек 08:03

Часовой пояс: GMT + 4



Вы не можете начинать темы
Вы не можете отвечать на сообщения
Вы не можете редактировать свои сообщения
Вы не можете удалять свои сообщения
Вы не можете голосовать в опросах
Вы не можете прикреплять файлы к сообщениям
Вы не можете скачивать файлы