Ошибка

Астерикс: Земля Богов / Asterix: Le domaine des dieux (Луис Клиши, Александр Астье) [2014, мультфильм, приключения, фэнтези, комедия, BDRip 1080p]

Ответить на тему
 
Автор Сообщение

L

Пол: Пол:Муж

Стаж: 6 лет 7 месяцев

Сообщений: 10757

Украина
Рейтинг

post 06-Фев-2015 12:22 0[+]

[Цитировать] 

Астерикс: Земля Богов/ Astérix: Le domaine des dieux
Год выпуска: 2014
Жанр: Мультфильм, приключения, фэнтези, комедия, полномеражный
Выпущено: Франция, M6 Studio, Belvision, Grid Animation
Продолжительность: 01:25:34
Перевод: Дублированный

Режиссер: Александр Астье, Луис Клиши
В ролях: Роже Карель, Гийом Бриа, Лоран Дойч, Лоран Лафитт, Александр Астье, Ален Шаба, Эли Семун, Жеральдин Накаш, Артюс де Пенгерн, Лионель Астье

О фильме: Астерикс и его лучший друг Обеликс продолжают свою многолетнюю борьбу с Цезарем, который хочет наконец-то расправиться с неукротимыми галлами. Вокруг деревни Астерикса Цезарь приказывает построить новый Рим — Землю Богов. В галльской деревне хаос и смятение. Но Астерикс и Обеликс не сдаются!

Качество: BDRip 1080p
Формат: MKV
Видео: MPEG-4 AVC, 9500 Кбит/с, 1920x1080
Аудио: DTS, 6 ch, 1510 Кбит/с
Общее
Уникальный идентификатор : 246793446540205292405383801030662622098 (0xB9AAB05A3EBFE6FC8D9BBD238DC70B92)
Полное имя : D:\Тапкораздачи\Aster1ks.2014.D.BDRip.1080p..mkv
Формат : Matroska
Версия формата : Version 2
Размер файла : 6,58 Гбайт
Продолжительность : 1 ч. 25 м.
Общий поток : 11,0 Мбит/сек
Дата кодирования : UTC 2015-02-05 23:47:21
Программа кодирования : mkvmerge v7.5.0 ('Glass Culture') 64bit built on Jan 4 2015 16:48:44
Библиотека кодирования : libebml v1.3.1 + libmatroska v1.4.2
DURATION : 01:25:34.678000000
NUMBER_OF_FRAMES : 481376
NUMBER_OF_BYTES : 968528512
_STATISTICS_WRITING_APP : mkvmerge v7.5.0 ('Glass Culture') 64bit built on Jan 4 2015 16:48:44
_STATISTICS_WRITING_DATE_UTC : 2015-02-05 23:47:21
_STATISTICS_TAGS : BPS DURATION NUMBER_OF_FRAMES NUMBER_OF_BYTES

Видео
Идентификатор : 1
Формат : AVC
Формат/Информация : Advanced Video Codec
Профиль формата : High@L4.1
Параметр CABAC формата : Да
Параметр ReFrames формата : 4 кадра
Идентификатор кодека : V_MPEG4/ISO/AVC
Продолжительность : 1 ч. 25 м.
Битрейт : 9500 Кбит/сек
Ширина : 1920 пикселей
Высота : 1080 пикселей
Соотношение сторон : 16:9
Режим частоты кадров : Постоянный
Частота кадров : 23,976 кадра/сек
Цветовое пространство : YUV
Субдискретизация насыщенности : 4:2:0
Битовая глубина : 8 бит
Тип развёртки : Прогрессивная
Бит/(Пиксели*Кадры) : 0.191
Размер потока : 5,55 Гбайт (84%)
Библиотека кодирования : x264 core 144 r2525 40bb568
Настройки программы : cabac=1 / ref=4 / deblock=1:0:0 / analyse=0x3:0x3 / me=dia / subme=1 / psy=1 / psy_rd=1.00:0.00 / mixed_ref=0 / me_range=16 / chroma_me=1 / trellis=0 / 8x8dct=1 / cqm=0 / deadzone=21,11 / fast_pskip=1 / chroma_qp_offset=-2 / threads=18 / lookahead_threads=3 / sliced_threads=0 / nr=0 / decimate=1 / interlaced=0 / bluray_compat=0 / constrained_intra=0 / bframes=1 / b_pyramid=0 / b_adapt=1 / b_bias=0 / direct=1 / weightb=1 / open_gop=0 / weightp=1 / keyint=240 / keyint_min=23 / scenecut=40 / intra_refresh=0 / rc=2pass / mbtree=0 / bitrate=9500 / ratetol=1.0 / qcomp=0.60 / qpmin=0 / qpmax=69 / qpstep=4 / cplxblur=20.0 / qblur=0.5 / ip_ratio=1.40 / pb_ratio=1.30 / aq=2:1.00
Язык : English
Default : Да
Forced : Нет
DURATION : 01:25:34.672000000
NUMBER_OF_FRAMES : 123109
NUMBER_OF_BYTES : 6098858028
_STATISTICS_WRITING_APP : mkvmerge v7.5.0 ('Glass Culture') 64bit built on Jan 4 2015 16:48:44
_STATISTICS_WRITING_DATE_UTC : 2015-02-05 23:47:21
_STATISTICS_TAGS : BPS DURATION NUMBER_OF_FRAMES NUMBER_OF_BYTES

Аудио
Идентификатор : 2
Формат : DTS
Формат/Информация : Digital Theater Systems
Режим : 16
Параметр Endianness формата : Big
Идентификатор кодека : A_DTS
Продолжительность : 1 ч. 25 м.
Вид битрейта : Постоянный
Битрейт : 1509 Кбит/сек
Каналы : 6 каналов
Расположение каналов : Front: L C R, Side: L R, LFE
Частота : 48,0 КГц
Битовая глубина : 24 бит
Метод сжатия : С потерями
Размер потока : 924 Мбайт (14%)
Язык : Russian
Default : Да
Forced : Нет
info [Профиль]  [ЛС] 

nedis

Стаж: 7 лет 2 месяца

Сообщений: 72

Рейтинг

post 06-Фев-2015 18:17 (спустя 5 часов) [-]0[+]

[Цитировать] 

так себе!
info [Профиль]  [ЛС] 

ilyasyrgi

Пол: Пол:Муж

Стаж: 3 года 10 месяцев

Сообщений: 31

Македония
Рейтинг

post 20-Июл-2015 08:34 (спустя 5 месяцев 13 дней) [-]0[+]

[Цитировать] 

Чё за хуня с форматом аудио? на компе то пох как смотреть, но я поставил мульт на флэшку и телек не поддерживает его. Есть у кого 1080р качество со стандартным форматом (или более менее поддерживаемый на ёб*ных телеках) сам телек: днс 4к
info [Профиль]  [ЛС] 

post 20-Июл-2015 09:42 (спустя 1 час 7 минут) [-]0[+]

Топик был перенесен из форума Зарубежные полнометражные мультфильмы в форум Мультфильмы (HD Video)

BZzz
 
Показать сообщения:    
Ответить на тему

Текущее время: 03-Дек 13:42

Часовой пояс: GMT + 4



Вы не можете начинать темы
Вы не можете отвечать на сообщения
Вы не можете редактировать свои сообщения
Вы не можете удалять свои сообщения
Вы не можете голосовать в опросах
Вы не можете прикреплять файлы к сообщениям
Вы не можете скачивать файлы