Ошибка

До окончания фрилича осталось:


Семейка монстров / The Boxtrolls (Грэхэм Эннэйбл, Энтони Стакки) [2014, мультфильм, фэнтези, комедия, приключения, семейный, BDRip 720p]

Ответить на тему
 
Автор Сообщение

L

Пол: Пол:Муж

Стаж: 6 лет 8 месяцев

Сообщений: 10838

Украина
Рейтинг

post 06-Фев-2015 09:03 0[+]

[Цитировать] 

Семейка монстров / The Boxtrolls


Год выхода: 2014
Жанр: мультфильм, фэнтези, комедия, приключения, семейный
Выпущено: Laika Entertainment
Продолжительность: 01:36:10
Перевод: Дублированный (лицензия)
Субтитры: Русские (форс,полные), Английские

Режиссер: Грэхэм Эннэйбл, Энтони Стакки
В ролях: Бен Кингсли, Джаред Харрис, Ник Фрост, Ричард Айоади, Трэйси Морган, Ди Брэдли Бейкер, Стивен Блум, Ника Футтерман, Пэт Фрэли, Фред Татаскьор

О фильме: Ему не повезло родиться в роскошном замке. Вместе с семейкой забавных монстров юноша поселился прямо под мостовой. Изысканные костюмы ему заменила обычная коробка. Зато каждую ночь он мог разгуливать по темным улицам в поисках новых приключений. Но однажды он встретил очаровательную девчушку из высшего общества — и мир вокруг изменился навсегда.



Качество: BDRip 720p (источник: Blu-ray Disc)
Формат: MKV
Видео: x264 1280x720 (16:9), 23.976 fps, 3440 kbps
Аудио #1: AC-3, 6 ch, 448 kbps (Rus)
Аудио #2: AC-3, 6 ch, 448 kbps (Eng)
Субтитры: srt
Скачать: сэмпл

Скриншоты
Общее
Уникальный идентификатор : 221014616444718873508104726000591351720 (0xA645DDE6549B057A8FF92724680EAFA8)
Полное имя : The.Boxtrolls.2014.BDRip.720p.Rus.Eng.mkv
Формат : Matroska
Версия формата : Version 2
Размер файла : 2,91 Гбайт
Продолжительность : 1 ч. 36 м.
Общий поток : 4336 Кбит/сек
Название фильма : Семейка монстров / The Boxtrolls (2014)
Дата кодирования : UTC 2015-02-05 16:43:08
Программа кодирования : mkvmerge v5.8.0 ('No Sleep / Pillow') built on Sep 2 2012 15:37:04
Библиотека кодирования : libebml v1.2.3 + libmatroska v1.3.0

Видео
Идентификатор : 1
Формат : AVC
Формат/Информация : Advanced Video Codec
Профиль формата : High@L4.1
Параметр CABAC формата : Да
Параметр ReFrames формата : 8 кадров
Идентификатор кодека : V_MPEG4/ISO/AVC
Продолжительность : 1 ч. 36 м.
Битрейт : 3439 Кбит/сек
Ширина : 1280 пикселей
Высота : 720 пикселей
Соотношение сторон : 16:9
Режим частоты кадров : Постоянный
Частота кадров : 23,976 кадра/сек
Цветовое пространство : YUV
Субдискретизация насыщенности : 4:2:0
Битовая глубина : 8 бит
Тип развёртки : Прогрессивная
Бит/(Пиксели*Кадры) : 0.156
Размер потока : 2,25 Гбайт (77%)
Заголовок : Release by AlexKa
Библиотека кодирования : x264 core 144 r2525 40bb568
Настройки программы : cabac=1 / ref=8 / deblock=1:0:0 / analyse=0x3:0x133 / me=umh / subme=11 / psy=1 / psy_rd=1.00:0.00 / mixed_ref=1 / me_range=32 / chroma_me=1 / trellis=2 / 8x8dct=1 / cqm=0 / deadzone=21,11 / fast_pskip=0 / chroma_qp_offset=-2 / threads=12 / lookahead_threads=2 / sliced_threads=0 / nr=0 / decimate=1 / interlaced=0 / bluray_compat=0 / constrained_intra=0 / bframes=8 / b_pyramid=2 / b_adapt=2 / b_bias=0 / direct=3 / weightb=1 / open_gop=0 / weightp=2 / keyint=240 / keyint_min=23 / scenecut=40 / intra_refresh=0 / rc=2pass / mbtree=0 / bitrate=3439 / ratetol=1.0 / qcomp=0.60 / qpmin=0 / qpmax=69 / qpstep=4 / cplxblur=20.0 / qblur=0.5 / ip_ratio=1.40 / pb_ratio=1.30 / aq=1:1.00
Язык : English

Аудио #1
Идентификатор : 2
Формат : AC-3
Формат/Информация : Audio Coding 3
Расширение режима : CM (complete main)
Параметр Endianness формата : Big
Идентификатор кодека : A_AC3
Продолжительность : 1 ч. 36 м.
Вид битрейта : Постоянный
Битрейт : 448 Кбит/сек
Каналы : 6 каналов
Расположение каналов : Front: L C R, Side: L R, LFE
Частота : 48,0 КГц
Битовая глубина : 16 бит
Метод сжатия : С потерями
Размер потока : 308 Мбайт (10%)
Заголовок : Rus
Язык : Russian

Аудио #2
Идентификатор : 3
Формат : AC-3
Формат/Информация : Audio Coding 3
Расширение режима : CM (complete main)
Параметр Endianness формата : Big
Идентификатор кодека : A_AC3
Продолжительность : 1 ч. 36 м.
Вид битрейта : Постоянный
Битрейт : 448 Кбит/сек
Каналы : 6 каналов
Расположение каналов : Front: L C R, Side: L R, LFE
Частота : 48,0 КГц
Битовая глубина : 16 бит
Метод сжатия : С потерями
Размер потока : 308 Мбайт (10%)
Заголовок : Eng
Язык : English

Текст #1
Идентификатор : 4
Формат : UTF-8
Идентификатор кодека : S_TEXT/UTF8
Идентификатор кодека/Информация : UTF-8 Plain Text
Заголовок : Rus forced
Язык : Russian

Текст #2
Идентификатор : 5
Формат : UTF-8
Идентификатор кодека : S_TEXT/UTF8
Идентификатор кодека/Информация : UTF-8 Plain Text
Заголовок : Rus
Язык : Russian

Текст #3
Идентификатор : 6
Формат : UTF-8
Идентификатор кодека : S_TEXT/UTF8
Идентификатор кодека/Информация : UTF-8 Plain Text
Заголовок : Eng
Язык : English

Меню
00:00:00.000 : :Chapter 01
00:05:52.143 : :Chapter 02
00:11:53.295 : :Chapter 03
00:15:21.337 : :Chapter 04
00:20:22.804 : :Chapter 05
00:27:08.501 : :Chapter 06
00:32:25.944 : :Chapter 07
00:36:26.517 : :Chapter 08
00:41:45.920 : :Chapter 09
00:45:45.284 : :Chapter 10
00:51:57.280 : :Chapter 11
00:56:00.106 : :Chapter 12
01:02:03.886 : :Chapter 13
01:07:26.208 : :Chapter 14
01:11:27.866 : :Chapter 15
01:16:27.874 : :Chapter 16
01:22:05.670 : :Chapter 17
01:25:30.375 : :Chapter 18
01:27:33.248 : :Chapter 19
01:30:00.686 : :Chapter 20
01:36:09.472 : :Chapter 21
x264 [info]: frame I:1113 Avg QP:16.70 size:126731
x264 [info]: frame P:33164 Avg QP:19.42 size: 35706
x264 [info]: frame B:104057 Avg QP:21.53 size: 11090
x264 [info]: consecutive B-frames: 3.1% 2.6% 9.9% 30.2% 21.4% 25.9% 3.1% 3.1% 0.8%
info [Профиль]  [ЛС] 

Jamato

Пол: Пол:Муж

Стаж: 6 лет 9 месяцев

Сообщений: 770

Украина
Рейтинг

post 06-Фев-2015 10:52 (спустя 1 час 49 минут) [-]2[+]

[Цитировать] 

Коралина была лучше =(

_________________
Экономлю энергию и деньги на С.С.С.Р.
Сигаретах.Спиртном.Сексе.Радости...(с)闇倭
info [Профиль]  [ЛС] 

Pelops

Пол: Пол:Муж

Стаж: 6 лет 2 месяца

Сообщений: 27

Казахстан
Рейтинг

post 06-Фев-2015 14:12 (спустя 3 часа) [-]0[+]

[Цитировать] 

А мне этот больше понравился,отличный мультик,я с сыном залип
info [Профиль]  [ЛС] 

Mitsuko

Пол: Пол:Муж

Стаж: 4 года 3 месяца

Сообщений: 17

Рейтинг

post 06-Фев-2015 19:43 (спустя 5 часов) [-]1[+]

[Цитировать] 

Очень красивый мультфильм.
info [Профиль]  [ЛС] 

Oksi Klim

Пол: Пол:Жен

Стаж: 4 года 11 месяцев

Сообщений: 44

СССР
Рейтинг

post 06-Авг-2015 13:04 (спустя 5 месяцев 27 дней) [-]0[+]

[Цитировать] 

L
Спасибо!
Mitsuko
Полностью поддерживаю. Улыбаюсь

_________________
Have a question? Go, FAQ yourself.
info [Профиль]  [ЛС] 

post 05-Фев-2016 23:55 (спустя 5 месяцев 30 дней) [-]0[+]

Топик был перенесен из форума Новинки 2014-2015 (Web-DL, DVD, HD DVD, Blu-ray, HD Rips) в форум Мультфильмы (HD Video)

LyaKich
 
Показать сообщения:    
Ответить на тему

Текущее время: 10-Дек 01:23

Часовой пояс: GMT + 4



Вы не можете начинать темы
Вы не можете отвечать на сообщения
Вы не можете редактировать свои сообщения
Вы не можете удалять свои сообщения
Вы не можете голосовать в опросах
Вы не можете прикреплять файлы к сообщениям
Вы не можете скачивать файлы