Ошибка

Психопаспорт (ТВ-2) / Psycho-Pass 2 [TV-2] [1-11 из 11] [2014] [боевик, фантастика, полиция] [HDTVRip] [HWP][Любительский (JAP+SUB)]

Ответить на тему
 
Автор Сообщение

L

Пол: Пол:Муж

Стаж: 6 лет 8 месяцев

Сообщений: 10837

Украина
Рейтинг

post 02-Фев-2015 00:52 1[+]

[Цитировать] 

Психопаспорт [ТВ-2] / Psycho-Pass 2

Страна: Япония
Год выпуска: 2014 г.
Жанр: триллер, фантастика
Тип: TV
Продолжительность: 11 эп. по 25 мин.
Режиссер: Сиотани Наоёси
Студия: Tatsunoko
Озвучка:
  • одноголосая женская [Persona99]
Субтитры:
  • Русские
    • Перевод: Редактор: Fatotaku Перевод песен: Jarly Редактор: Pat-Rica Переводчик/Тайм-код/Оформление: St_Ranger
Описание: Есть ли научный способ предотвращения преступлений? Люди будущего, создавшие систему Сивилла и разработавшие систему психопаспортов, были уверены, что нашли его. Изобретенная ими техника позволяла безошибочно определять, способен ли человек совершить убийство. Отряды опытных инспекторов готовы были в любое время задержать или казнить на месте преступника, в зависимости от мнения Сивиллы – коллективного опыта человечества.
Изъяны сложившейся системы сразу же заметила Цунэмори Аканэ – юная девушка и новоиспеченный инспектор, человек в чем-то наивный, но зато принципиальный и готовый идти до конца в борьбе за свои убеждения. Она уверена, что даже коллективный опыт человечества не способен всегда принимать справедливые решения. Ее коллеги от своих жертв отличаются лишь тем, что имеют разрешение убивать и потому не бояться повышения своего криминального коэффициента. Борьба за новое лучшее будущее только начинается, и коллегам Аканэ, ряды которых пополнились новыми лицами, предстоит еще много работы.

Качество: HDTVRip
Тип релиза: Без хардсаба
Формат видео: AVI
Видео: XVID, 704х396, 1298 kbps, 23,976 Hz, 8bits
Аудио: AC-3, 192kbps, 48,0Hz, 2ch, 16bits Язык Русский (в составе контейнера);
Аудио 2: AC-3, 192kbps, 48,0Hz, 2ch, 16bits
Субтитры: ASS + srt
Формат : AVI
Формат/Информация : Audio Video Interleave
Размер файла : 273 Мбайт
Продолжительность : 22 м.
Общий поток : 1696 Кбит/сек
Программа кодирования : VirtualDubMod 1.5.10.2 (build 2540/release)
Библиотека кодирования : VirtualDubMod build 2540/release
Видео
Идентификатор : 0
Формат : MPEG-4 Visual
Профиль формата : Advanced Simple@L5
Параметр BVOP формата : 2
Параметр QPel формата : Нет
Параметр GMC формата : Без точки перехода
Параметр матрицы формата : Default (H.263)
Идентификатор кодека : XVID
Идентификатор кодека/Подсказка : XviD
Продолжительность : 22 м.
Битрейт : 1298 Кбит/сек
Ширина : 704 пикселя
Высота : 396 пикселей
Соотношение сторон : 16:9
Частота кадров : 23,976 кадра/сек
Цветовое пространство : YUV
Субдискретизация насыщенности : 4:2:0
Битовая глубина : 8 бит
Тип развёртки : Прогрессивная
Метод сжатия : С потерями
Бит/(Пиксели*Кадры) : 0.194
Размер потока : 209 Мбайт (77%)
Библиотека кодирования : XviD 1.2.1 (UTC 2008-12-04)
Аудио #1
Идентификатор : 1
Формат : AC-3
Формат/Информация : Audio Coding 3
Расширение режима : CM (complete main)
Параметр Endianness формата : Big
Идентификатор кодека : 2000
Продолжительность : 22 м.
Вид битрейта : Постоянный
Битрейт : 192 Кбит/сек
Каналы : 2 канала
Расположение каналов : Front: L R
Частота : 48,0 КГц
Битовая глубина : 16 бит
Метод сжатия : С потерями
Размер потока : 30,9 Мбайт (11%)
Выравнивание : Разделение по промежуткам
Продолжительность промежутка : 42 мс. (1,00 видеокадр)
Время предзагрузки промежутка : 500 мс.
Аудио #2
Идентификатор : 2
Формат : AC-3
Формат/Информация : Audio Coding 3
Расширение режима : CM (complete main)
Параметр Endianness формата : Big
Идентификатор кодека : 2000
Продолжительность : 22 м.
Вид битрейта : Постоянный
Битрейт : 192 Кбит/сек
Каналы : 2 канала
Расположение каналов : Front: L R
Частота : 48,0 КГц
Битовая глубина : 16 бит
Метод сжатия : С потерями
Размер потока : 30,9 Мбайт (11%)
Выравнивание : Разделение по промежуткам
Продолжительность промежутка : 42 мс. (1,00 видеокадр)
Время предзагрузки промежутка : 500 мс.
01. Весы правосудия <299/300>
02. Крадущаяся неизвестность
03. Дьявольское доказательство
04. Спасение Иова
05. Незапрещённые игры
06. Те, кто бросают камни
07. Исчезнувшие дети
08. Замысел Оракула «AA»
09. Парадокс всемогущества
10. Измерение души.
11. Какой цвет?
info [Профиль]  [ЛС] 
Показать сообщения:    
Ответить на тему

Текущее время: 09-Дек 15:48

Часовой пояс: GMT + 4



Вы не можете начинать темы
Вы не можете отвечать на сообщения
Вы не можете редактировать свои сообщения
Вы не можете удалять свои сообщения
Вы не можете голосовать в опросах
Вы не можете прикреплять файлы к сообщениям
Вы не можете скачивать файлы