Ошибка

BBC: Свет и тьма / BBC: Light and Dark (Стефан Кутер) [2013 г., документальный, SATRip]

Ответить на тему
 
Автор Сообщение

markfiter

Пол: Пол:Муж

Стаж: 4 года 11 месяцев

Сообщений: 2723

Германия
Рейтинг

post 31-Янв-2015 23:50 3[+]

[Цитировать] 

BBC: Свет и тьма / BBC: Light and Dark

Год выпуска: 2013
Страна: Великобритания
Жанр: документальный
Продолжительность: 2 х ~00:51:30
Перевод: Профессиональный (одноголосый)

Режиссер: Стефан Кутер

Описание: Свет - основа жизни на нашей планете. Отвечая на вопросы "Почему небо голубое?" и "Почему трава зеленая?" можно давать однозначный ответ - "Благодаря свету". Эта неотъемлемая часть нашей жизни, но мы все еще стараемся понять феномен света...

Качество: SATRip
Формат: AVI
Видео кодек: XviD
Аудио кодек: AC3
Видео: 720x400, 25fps ~1859 Kbps
Аудио: 48000Hz stereo, ~192kbps
Общее
Формат : AVI
Формат/Информация : Audio Video Interleave
Размер файла : 765 Мбайт
Продолжительность : 51 м.
Общий поток : 2061 Кбит/сек
Название фильма : Light & Dark (s.01.e.01). Light
Режиссёр : SATRip by Thunder
Программа кодирования : VirtualDubMod 1.5.10.3 | www.virtualdub-fr.org || (build 2550/release)
Формат оригинала/Имя : Documentary

Видео
Идентификатор : 0
Формат : MPEG-4 Visual
Профиль формата : Advanced Simple@L5
Параметр BVOP формата : 2
Параметр QPel формата : Нет
Параметр GMC формата : Без точки перехода
Параметр матрицы формата : Default (H.263)
Идентификатор кодека : XVID
Идентификатор кодека/Подсказка : XviD
Продолжительность : 51 м.
Битрейт : 1859 Кбит/сек
Ширина : 720 пикселей
Высота : 400 пикселей
Соотношение сторон : 16:9
Частота кадров : 25,000 кадров/сек
Цветовое пространство : YUV
Субдискретизация насыщенности : 4:2:0
Битовая глубина : 8 бит
Тип развёртки : Прогрессивная
Метод сжатия : С потерями
Бит/(Пиксели*Кадры) : 0.258
Размер потока : 690 Мбайт (90%)
Библиотека кодирования : XviD 1.2.1 (UTC 2008-12-04)

Аудио
Идентификатор : 1
Формат : AC-3
Формат/Информация : Audio Coding 3
Расширение режима : CM (complete main)
Параметр Endianness формата : Big
Идентификатор кодека : 2000
Продолжительность : 51 м.
Вид битрейта : Постоянный
Битрейт : 192 Кбит/сек
Каналы : 2 канала
Расположение каналов : Front: L R
Частота : 48,0 КГц
Битовая глубина : 16 бит
Метод сжатия : С потерями
Размер потока : 71,3 Мбайт (9%)
Выравнивание : Разделение по промежуткам
Продолжительность промежутка : 40 мс. (1,00 видеокадр)
Время предзагрузки промежутка : 500 мс.
info [Профиль]  [ЛС] 

analpunishment

Пол: Пол:Муж

Стаж: 3 года 7 месяцев

Сообщений: 18

Багамские острова
Рейтинг

post 01-Фев-2015 00:56 (спустя 1 час 6 минут) [-]5[+]

[Цитировать] 

мужик на фишборна похож (морфиуса)

_________________
ad
info [Профиль]  [ЛС] 

dadunga

Стаж: 2 года 6 месяцев

Сообщений: 22

Рейтинг

post 01-Фев-2015 00:57 (спустя 1 минута) [-]0[+]

[Цитировать] 

Спасибо
info [Профиль]  [ЛС] 

DenZ666

Пол: Пол:Муж

Стаж: 3 года 1 месяц

Сообщений: 41

Россия
Рейтинг

post 01-Фев-2015 02:21 (спустя 1 час 24 минуты) [-]0[+]

[Цитировать] 

analpunishment писал(а):

мужик на фишборна похож (морфиуса)
опередил kolob_107
info [Профиль]  [ЛС] 

bobck

Пол: Пол:Муж

Стаж: 7 лет 8 месяцев

Сообщений: 106

Украина
Рейтинг

post 01-Фев-2015 07:00 (спустя 4 часа) [-]0[+]

[Цитировать] 

Спасибо!!!
Где можно достать больше подобных документалок?

_________________
На очі нижче капюшон, звук прикрути і знову на початок...
info [Профиль]  [ЛС] 

dezmand07

Пол: Пол:Муж

Стаж: 4 года 11 месяцев

Сообщений: 197

Россия
Рейтинг

post 01-Фев-2015 12:33 (спустя 5 часов) [-]0[+]

[Цитировать] 

bobck писал(а):

Где можно достать больше подобных документалок?
советую посмотреть материалы из книг Карла Сагана
Космос: персональное путешествие
Космос: Пространство и время

а также серию работ Стивена Хокинга
Во Вселенную со Стивеном Хокингом

_________________
Grandmaster
info [Профиль]  [ЛС] 
Показать сообщения:    
Ответить на тему

Текущее время: 05-Дек 18:35

Часовой пояс: GMT + 4



Вы не можете начинать темы
Вы не можете отвечать на сообщения
Вы не можете редактировать свои сообщения
Вы не можете удалять свои сообщения
Вы не можете голосовать в опросах
Вы не можете прикреплять файлы к сообщениям
Вы не можете скачивать файлы