Ошибка

Снежная королева 2: Перезаморозка (Алексей Цицилин) [2014, мультфильм, фэнтези, приключения, семейный, WEB-DLRip]

Ответить на тему
 
Автор Сообщение

BZzz

Пол: Пол:Муж

Стаж: 5 лет 3 месяца

Сообщений: 3686

Россия
Рейтинг

post 29-Янв-2015 02:00 1[+]

[Цитировать] 

Снежная королева 2: Перезаморозка




Год выпуска: 2014
Страна: Россия
Жанр: мультфильм, фэнтези, приключения, семейный
Продолжительность: 01:18:20
Перевод: Оригинал [цифровая лицензия iTunes]

Режиссер: Алексей Цицилин

В ролях: Иван Охлобыстин, Нюша Шурочкина, Анна Хилькевич, Александр Уман, Игорь Бортник, Алексей Лихницкий, Роман Юнусов, Александр Гудков


Описание: Тщеславный тролль Орм давно мечтает о лаврах героя, и наконец получает этот шанс: северный ветер грозит миру вечной зимой и похищает Марибель. Рука принцессы и королевство троллей достанутся тому, кто вызволит ее из снежного плена. Однажды Орм победил зиму с помощью друзей, теперь он хочет действовать в одиночку. На нем доспехи из сковородок, за ним — отряд трусливых троллей, а впереди — опасный путь к замку Снежной королевы. Но, к счастью, друзья не помнят обид: храбрая Герда, застенчивый Кай, удалая Альфида и весёлая Лута не бросят Орма в беде. А значит их ждут невероятные приключения!

Сборы в России: $5 337 851



Качество: WEB-DLRip
Формат: AVI
Видео кодек: XviD
Аудио кодек: AC3
Видео: 720x304 (2.35:1), 24.000 fps, XviD, 2 106 Kbps
Аудио #1: AC3, 384 Kbps, 48.0 KHz, 6 ch
> В озвучивании англоязычной версии фильма принимали участие следующие актеры:
Орм — Шарлто Копли;

Герда — Белла Торн;

Аррог — Шон Бин;

Альфида — Изабель Фурман;

Король — Джефф Беннетт;

Бабуля — Кэнди Мило;

Лута — Ди Брэдли Бейкер;

Марибель — Сара Крэйвенс;

Рахат — Пэт Фрэли;

Лукум — Билл Чотт.
General
Complete name : Snegnaya.Koroleva.2.2014.O.WEB-DLRip.avi
Format : AVI
Format/Info : Audio Video Interleave
File size : 1.37 GiB
Duration : 1h 18mn
Overall bit rate : 2 499 Kbps
Writing application : VirtualDubMod 1.5.10.2 (build 2540/release)
Writing library : VirtualDubMod build 2540/release

Video
ID : 0
Format : MPEG-4 Visual
Format profile : Advanced Simple@L5
Format settings, BVOP : Yes
Format settings, QPel : No
Format settings, GMC : No warppoints
Format settings, Matrix : Default (MPEG)
Codec ID : XVID
Codec ID/Hint : XviD
Duration : 1h 18mn
Bit rate : 2 106 Kbps
Width : 720 pixels
Height : 304 pixels
Display aspect ratio : 2.35:1
Frame rate : 24.000 fps
Color space : YUV
Chroma subsampling : 4:2:0
Bit depth : 8 bits
Scan type : Progressive
Bits/(Pixel*Frame) : 0.401
Stream size : 1.15 GiB (84%)
Writing library : XviD 1.2.1 (UTC 2008-12-04)

Audio
ID : 1
Format : AC-3
Format/Info : Audio Coding 3
Mode extension : CM (complete main)
Codec ID : 2000
Duration : 1h 18mn
Bit rate mode : Constant
Bit rate : 384 Kbps
Channel(s) : 6 channels
Channel positions : Front: L C R, Side: L R, LFE
Sampling rate : 48.0 KHz
Bit depth : 16 bits
Stream size : 215 MiB (15%)
Alignment : Split accross interleaves
Interleave, duration : 42 ms (1.00 video frame)
Interleave, preload duration : 500 ms
info [Профиль]  [ЛС] 

qgrabber

Пол: Пол:Муж

Стаж: 6 лет 7 месяцев

Сообщений: 17

Украина
Рейтинг

post 29-Янв-2015 21:18 (спустя 19 часов) [-]-1[+]

[Цитировать] 

На последнем скриншоте девушка похожа на подружку Гордона Фримена Улыбаюсь
info [Профиль]  [ЛС] 

Kellys

Пол: Пол:Жен

Стаж: 5 лет 6 месяцев

Сообщений: 1

Россия
Рейтинг

post 29-Янв-2015 22:51 (спустя 1 час 32 минуты) [-]-1[+]

[Цитировать] 

Из англоязычной озвучки, я знаю Шона Бина, а вот остальные имена мне вообще ни чего не говорят))))Но спасибо за информацию)) anime_56
info [Профиль]  [ЛС] 

post 05-Фев-2016 01:16 (спустя 1 год) [-]0[+]

Топик был перенесен из форума Новинки 2014-2015 (Rips) в форум Отечественные полнометражные мультфильмы

LyaKich
 
Показать сообщения:    
Ответить на тему

Текущее время: 20-Фев 17:26

Часовой пояс: GMT + 4



Вы не можете начинать темы
Вы не можете отвечать на сообщения
Вы не можете редактировать свои сообщения
Вы не можете удалять свои сообщения
Вы не можете голосовать в опросах
Вы не можете прикреплять файлы к сообщениям
Вы не можете скачивать файлы