Ошибка

Астерикс: Земля Богов / Asterix: Le domaine des dieux (Луис Клиши, Александр Астье) [2014, мультфильм, приключения, фэнтези, комедия, HDRip]

Ответить на тему
 
Автор Сообщение

BZzz

Пол: Пол:Муж

Стаж: 5 лет 1 месяц

Сообщений: 3647

Россия
Рейтинг

post 28-Янв-2015 19:49 2[+]

[Цитировать] 

Астерикс: Земля Богов / Asterix: Le domaine des dieux
«Самый громкий! Самый остроумный! Самый увлекательный!»




Год выпуска: 2014
Страна: Франция
Жанр: мультфильм, приключения, фэнтези, комедия
Продолжительность: 01:25:34
Перевод: Профессиональный (дублированный)[лицензия]

Режиссер: Луис Клиши, Александр Астье

В ролях: Роже Карель (Roger Carel), Лоран Дойч (Lorànt Deutsch), Лоран Лафитт (Laurent Lafitte (в титрах: Laurent Lafitte de la Comédie Française)), Александр Астье (Alexandre Astier), Ален Шаба (Alain Chabat), Эли Семун (Elie Semoun), Жеральдин Накаш (Géraldine Nakache), Артюс де Пенгерн (Artus de Penguern)

Описание: Астерикс и его лучший друг Обеликс продолжают свою многолетнюю борьбу с Цезарем, который хочет наконец-то расправиться с неукротимыми галлами. Вокруг деревни Астерикса Цезарь приказывает построить новый Рим — Землю Богов. В галльской деревне хаос и смятение. Но Астерикс и Обеликс не сдаются!

Сборы в России: $781 087



Качество: HDRip
Формат: AVI
Видео кодек: XviD
Аудио кодек: AC3
Видео: 720x400 (16:9), 23.976 fps, XviD, 1 830 Kbps
Аудио #1: AC3, 448 Kbps, 48.0 KHz, 6 ch
> Первый мультфильм про Астерикса и Обеликса сделанный в формате 3D.
Format : AVI
Format/Info : Audio Video Interleave
File size : 1.37 GiB
Duration : 1h 25mn
Overall bit rate : 2 287 Kbps
Writing application : VirtualDubMod 1.5.10.2 (build 2540/release)
Writing library : VirtualDubMod build 2540/release

Video
ID : 0
Format : MPEG-4 Visual
Format profile : Advanced Simple@L5
Format settings, BVOP : 2
Format settings, QPel : No
Format settings, GMC : No warppoints
Format settings, Matrix : Custom
Codec ID : XVID
Codec ID/Hint : XviD
Duration : 1h 25mn
Bit rate : 1 830 Kbps
Width : 720 pixels
Height : 400 pixels
Display aspect ratio : 16:9
Frame rate : 23.976 fps
Color space : YUV
Chroma subsampling : 4:2:0
Bit depth : 8 bits
Scan type : Progressive
Compression mode : Lossy
Bits/(Pixel*Frame) : 0.265
Stream size : 1.09 GiB (80%)
Writing library : XviD 1.2.1 (UTC 2008-12-04)

Audio
ID : 1
Format : AC-3
Format/Info : Audio Coding 3
Mode extension : CM (complete main)
Format settings, Endianness : Big
Codec ID : 2000
Duration : 1h 25mn
Bit rate mode : Constant
Bit rate : 448 Kbps
Channel(s) : 6 channels
Channel positions : Front: L C R, Side: L R, LFE
Sampling rate : 48.0 KHz
Bit depth : 16 bits
Compression mode : Lossy
Stream size : 274 MiB (20%)
Alignment : Split accross interleaves
Interleave, duration : 42 ms (1.00 video frame)
Interleave, preload duration : 500 ms
info [Профиль]  [ЛС] 

BZzz

Пол: Пол:Муж

Стаж: 5 лет 1 месяц

Сообщений: 3647

Россия
Рейтинг

post 06-Фев-2015 11:42 (спустя 8 дней) [-]0[+]

[Цитировать] 

 !  BZzz:
...лицензия

_________________
info [Профиль]  [ЛС] 

Kerjirby

Пол: Пол:Муж

Стаж: 7 лет 2 месяца

Сообщений: 29

Россия
Рейтинг

post 08-Фев-2015 21:21 (спустя 2 дня 9 часов) [-]0[+]

[Цитировать] 

Я, признаться, озадачен. Что сделали с некогда славным мультом? Снова зализанная графика, столь любимая нынешними студиями... Но больше всего убил перевод - Галлия теперь стала областью Британии??? С каких пор? Переводчик открыл бы википедию что ли?

_________________
Неверующий, но однозначно верю в догробную жизнь и смерть после жизни...
info [Профиль]  [ЛС] 

Montgomery

Пол: Пол:Муж

Стаж: 4 года

Сообщений: 706

Россия
Рейтинг

post 02-Мар-2015 20:27 (спустя 21 день) [-]0[+]

[Цитировать] 

Kerjirby писал(а):

Я, признаться, озадачен. Что сделали с некогда славным мультом? Снова зализанная графика, столь любимая нынешними студиями... Но больше всего убил перевод - Галлия теперь стала областью Британии??? С каких пор? Переводчик открыл бы википедию что ли?
Имеется ввиду Британи, это северная часть современной Франции, рядом с Нормандией, там когда-то жили британцы, он ещё называется Малой Британией, а Великой Британией - сам остров.

В целом мультик неплох, но он детский, у кого есть дети - качайте смело, добрый и весёлый мульт, но взрослые не осилят.
info [Профиль]  [ЛС] 

post 05-Фев-2016 01:10 (спустя 11 месяцев 2 дня) [-]0[+]

Топик был перенесен из форума Новинки 2014-2015 (Rips) в форум Зарубежные полнометражные мультфильмы

LyaKich
 
Показать сообщения:    
Ответить на тему

Текущее время: 08-Дек 09:56

Часовой пояс: GMT + 4



Вы не можете начинать темы
Вы не можете отвечать на сообщения
Вы не можете редактировать свои сообщения
Вы не можете удалять свои сообщения
Вы не можете голосовать в опросах
Вы не можете прикреплять файлы к сообщениям
Вы не можете скачивать файлы