Ошибка

Косяки (Дурман) / Weeds (Сезоны 1-3) (Крейг Зиск, Скотт Эллис, Пол Фейг) [2005 -2012 г., комедия, драма, криминал, BDRip 720p]VO + Original + Sub rus, eng от R.G. TNClub

Страницы:  1, 2  След.

Ответить на тему
 
Автор Сообщение

R.G. TNClub

Стаж: 2 года 3 месяца

Сообщений: 515

Рейтинг

post 26-Янв-2015 18:03 5[+]

[Цитировать] 

Косяки (Дурман) / Weeds
«A new series about *dealing* in the suburbs»

Season 1-3

Страна: США
Жанр: драма, комедия, криминал
Год выпуска: 2005-2012
Продолжительность: ~30 мин.
Перевод:
  • Профессиональный (Одноголосый закадровый) [Д.Строев] - русский
Субтитры: Russian (Артём Ионов), English
Оригинальная дорожка: английский

Режиссер: Крейг Зиск, Майкл Трим, Скотт Эллис
В ролях: Мэри-Луиз Паркер / Mary-Louise Parker (Nancy Botwin), Хантер Пэрриш / Hunter Parrish (Silas Botwin), Александр Гоулд / Alexander Gould (Shane Botwin), Кевин Нилон / Kevin Nealon (Doug Wilson), Джастин Кирк / Justin Kirk (Andy Botwin), Элизабет Перкинс / Elizabeth Perkins (Celia Hodes), Энди Милдер / Andy Milder (Dean Hodes), Романи Малко / Romany Malco (Conrad Shepard), Тони Патано / Tonye Patano (Heylia James)


Описание: Речь в сериале идет не о борьбе с наркотиками и о том, как же вредна наркомания; здесь представлен взгляд совершенно с другой стороны — Нэнси живет в том самом американском сабарбе — предместье, где у каждого свой «скелет в шкафу». Она — вдова с двумя весьма оригинальными детьми. Старший, Сайлас, мальчик умный и интересный, с постоянными проблемами на любовном фронте, младший, Шейн — это вообще отдельная песня, за мамой он ходит постоянно и просит дать ему антидепрессанты, причем в больших количествах.

Но вернемся к маме — Нэнси не нашла никакого другого способа прокормить семью, как начать торговать марихуаной, которую ей подбрасывают местные дилеры — семейка афроамериканцев, где всем заправляет Хейлия, а помогает весьма неравнодушный к Нэнси парень Конрад.

После появления собственного торговца марихуаной, у Нэнси начали отовариваться все ее соседи — адвокаты, финансисты и прочие личности. В общем, можете себе представить эту картину, здорово приправленную черным юмором, замечательными комедийными вставками и трагикомическими поворотам.


Качество видео: BDRip 720p (by dabyg)
Формат видео: MKV

Видео: MPEG-4 AVC Video / ~6000 kbps / 1280x720 / 23,976 fps / High Profile 4.1
Аудио:
    Russian: DTS, 48 kHz, 3/2 (L,C,R,l,r) + LFE ch, ~1536.00 |Д.Строев|
    English: DTS, 48 kHz, 3/2 (L,C,R,l,r) + LFE ch, ~1536.00
    English: AC3/OGG, 48 kHz, 2/0 (L,R) + LFE ch, ~192.00/80 |Commentary|
Формат субтитров: softsub (SRT)

Внимание!!! В сериале присутствует ненормативная лексика в необходимом и достаточном количестве!
Раздача от &




Страна: США
Жанр: драма, комедия, криминал
Год выпуска: 2005
Продолжительность: ~30 мин.
Перевод:
  • Профессиональный (Одноголосый закадровый) [Д.Строев] - русский
Субтитры: Russian (Артём Ионов), English
Оригинальная дорожка: английский

Режиссер: Крейг Зиск, Майкл Трим, Скотт Эллис

В ролях: Мэри-Луиз Паркер / Mary-Louise Parker (Nancy Botwin), Хантер Пэрриш / Hunter Parrish (Silas Botwin), Александр Гоулд / Alexander Gould (Shane Botwin), Кевин Нилон / Kevin Nealon (Doug Wilson), Джастин Кирк / Justin Kirk (Andy Botwin), Элизабет Перкинс / Elizabeth Perkins (Celia Hodes), Энди Милдер / Andy Milder (Dean Hodes), Романи Малко / Romany Malco (Conrad Shepard), Тони Патано / Tonye Patano (Heylia James)
Season 1, Episode 1-10
Episode 1: You Can't Miss the Bear
Episode 2: Free Goat
Episode 3: Good Shit Lollipop
Episode 4: Fashion of the Christ
Episode 5: Lude Awakening
Episode 6: Dead in the Nethers
Episode 7: Higher Education
Episode 8: The Punishment Light
Episode 9: The Punishment Lighter
Episode 10: The Godmother
Качество видео: BDRip 720p (by dabyg)
Формат видео: MKV

Видео: MPEG-4 AVC Video / ~6000 kbps / 1280x720 / 23,976 fps / High Profile 4.1
Аудио:
  • Russian: DTS, 48 kHz, 3/2 (L,C,R,l,r) + LFE ch, ~1536.00 |Д.Строев|
  • English: DTS, 48 kHz, 3/2 (L,C,R,l,r) + LFE ch, ~1536.00
  • English: AC3, 48 kHz, 2/0 (L,R) + LFE ch, ~192.00 |Commentary|
Формат субтитров: softsub (SRT)
Weeds S01 Blu-ray 1080p AVC TrueHD 5.1
Общее
Уникальный идентификатор : 214528149017781676762258172517374259008 (0xA1649E5D45DBD986BFD4D22058046F40)
Полное имя : E:\Weeds.S01.2005.720p.BluRay\Weeds.S01E01.720p.BluRay.Rus.Eng.mkv
Формат : Matroska
Версия формата : Version 2
Размер файла : 1,79 Гбайт
Продолжительность : 31 м.
Общий поток : 8094 Кбит/сек
Дата кодирования : UTC 2012-12-16 10:05:20
Программа кодирования : mkvmerge v5.0.1 ('Es ist Sommer') built on Oct 9 2011 11:55:43
Библиотека кодирования : libebml v1.2.2 + libmatroska v1.3.0

Видео
Идентификатор : 1
Формат : AVC
Формат/Информация : Advanced Video Codec
Профиль формата : High@L4.1
Параметр CABAC формата : Да
Параметр ReFrames формата : 5 кадров
Параметр GOP формата : N=1
Идентификатор кодека : V_MPEG4/ISO/AVC
Продолжительность : 31 м.
Битрейт : 5995 Кбит/сек
Ширина : 1280 пикселей
Высота : 720 пикселей
Соотношение сторон : 16:9
Режим частоты кадров : Постоянный
Частота кадров : 23,976 кадра/сек
Цветовое пространство : YUV
Субдискретизация насыщенности : 4:2:0
Битовая глубина : 8 бит
Тип развёртки : Прогрессивная
Бит/(Пиксели*Кадры) : 0.221
Размер потока : 1,05 Гбайт (58%)
Заголовок : 1280x720 @ 4880 Kbps
Библиотека кодирования : x264 core 59 r808M ff5059a
Настройки программы : cabac=1 / ref=5 / deblock=1:-3:-3 / analyse=0x3:0x133 / me=umh / subme=7 / me-prepass=0 / brdo=1 / mixed_ref=1 / me_range=16 / chroma_me=1 / trellis=0 / 8x8dct=1 / cqm=2 / deadzone=6,4 / chroma_qp_offset=0 / threads=6 / nr=0 / decimate=1 / mbaff=0 / bframes=5 / b_pyramid=1 / b_adapt=1 / b_bias=0 / direct=1 / wpredb=1 / bime=1 / keyint=250 / keyint_min=25 / scenecut=40(pre) / rc=2pass / bitrate=4880 / ratetol=1.0 / rceq='blurCplx^(1-qComp)' / qcomp=1.00 / qpmin=10 / qpmax=51 / qpstep=4 / cplxblur=20.0 / qblur=0.5 / ip_ratio=1.40 / pb_ratio=1.30 / aq=2:1.00
Язык : English
Default : Да
Forced : Нет

Аудио #1
Идентификатор : 2
Формат : DTS
Формат/Информация : Digital Theater Systems
Режим : 16
Параметр Endianness формата : Big
Идентификатор кодека : A_DTS
Продолжительность : 31 м.
Вид битрейта : Постоянный
Битрейт : 1509 Кбит/сек
Каналы : 6 каналов
Расположение каналов : Front: L C R, Side: L R, LFE
Частота : 48,0 КГц
Битовая глубина : 24 бит
Метод сжатия : С потерями
Размер потока : 342 Мбайт (19%)
Заголовок : DTS 5.1 @ 1536 kbps – Одноголосый закадровый (Д.Строев)
Язык : Russian
Default : Да
Forced : Нет

Аудио #2
Идентификатор : 3
Формат : DTS
Формат/Информация : Digital Theater Systems
Режим : 16
Параметр Endianness формата : Big
Идентификатор кодека : A_DTS
Продолжительность : 31 м.
Вид битрейта : Постоянный
Битрейт : 1509 Кбит/сек
Каналы : 6 каналов
Расположение каналов : Front: L C R, Side: L R, LFE
Частота : 48,0 КГц
Битовая глубина : 24 бит
Метод сжатия : С потерями
Размер потока : 342 Мбайт (19%)
Заголовок : DTS 5.1 @ 1536 kbps
Язык : English
Default : Нет
Forced : Нет

Аудио #3
Идентификатор : 4
Формат : AC-3
Формат/Информация : Audio Coding 3
Профиль формата : Dolby Digital
Расширение режима : CM (complete main)
Параметр Endianness формата : Big
Идентификатор кодека : A_AC3
Продолжительность : 31 м.
Вид битрейта : Постоянный
Битрейт : 192 Кбит/сек
Каналы : 2 канала
Расположение каналов : Front: L R
Частота : 48,0 КГц
Битовая глубина : 16 бит
Метод сжатия : С потерями
Размер потока : 43,5 Мбайт (2%)
Заголовок : Commentary AC3 2.0 @ 192 Kbps
Язык : English
Default : Нет
Forced : Нет

Текст #1
Идентификатор : 5
Формат : UTF-8
Идентификатор кодека : S_TEXT/UTF8
Идентификатор кодека/Информация : UTF-8 Plain Text
Заголовок : Артём Ионов
Язык : Russian
Default : Нет
Forced : Нет

Текст #2
Идентификатор : 6
Формат : UTF-8
Идентификатор кодека : S_TEXT/UTF8
Идентификатор кодека/Информация : UTF-8 Plain Text
Язык : English
Default : Нет
Forced : Нет


Страна: США
Жанр: драма, комедия, криминал
Год выпуска: 2006
Продолжительность: ~30 мин.
Перевод:
  • Профессиональный (Одноголосый закадровый) [Д.Строев] - русский
Субтитры: Russian (Vipere), English
Оригинальная дорожка: английский


Режиссер: Крейг Зиск, Майкл Трим, Скотт Эллис

В ролях: Мэри-Луиз Паркер / Mary-Louise Parker (Nancy Botwin), Хантер Пэрриш / Hunter Parrish (Silas Botwin), Александр Гоулд / Alexander Gould (Shane Botwin), Кевин Нилон / Kevin Nealon (Doug Wilson), Джастин Кирк / Justin Kirk (Andy Botwin), Элизабет Перкинс / Elizabeth Perkins (Celia Hodes), Энди Милдер / Andy Milder (Dean Hodes), Романи Малко / Romany Malco (Conrad Shepard), Тони Патано / Tonye Patano (Heylia James)
Season 2, Episode 1-12
Episode 1: Corn Snake
Episode 2: Cooking with Jesus
Episode 3: Last Tango in Agrestic
Episode 4: A.K.A The Plant
Episode 5: Mrs. Botwin's Neighborhood
Episode 6: Crush Girl Love Panic
Episode 7: Must Find Toes
Episode 8: MILF Money
Episode 9: Bash
Episode 10: Mile Deep and a Foot Wide
Episode 11: Yeah, Just Like Tomatoes
Episode 12: Pittsburgh
Качество видео: BDRip 720p (by dabyg)
Формат видео: MKV

Видео: MPEG-4 AVC Video / ~6000 kbps / 1280x720 / 23,976 fps / High Profile 4.1
Аудио:
  • Russian: DTS, 48 kHz, 3/2 (L,C,R,l,r) + LFE ch, ~1536.00 |Д.Строев|
  • English: DTS, 48 kHz, 3/2 (L,C,R,l,r) + LFE ch, ~1536.00
  • English: OGG, 48 kHz, 2/0 (L,R) + LFE ch, ~80.00 |Commentary|
Формат субтитров: softsub (SRT)
Weeds S02 2006 1080p US Blu-ray AVC PCM 7.1
Общее
Уникальный идентификатор : 214528149017781676762258172517374259008 (0xA1649E5D45DBD986BFD4D22058046F40)
Полное имя : E:\Weeds.S02.2006.720p.BluRay\Weeds.S02E01.720p.BluRay.Rus.Eng.mkv
Формат : Matroska
Версия формата : Version 2
Размер файла : 1,79 Гбайт
Продолжительность : 31 м.
Общий поток : 8094 Кбит/сек
Дата кодирования : UTC 2012-12-16 10:05:20
Программа кодирования : mkvmerge v5.0.1 ('Es ist Sommer') built on Oct 9 2011 11:55:43
Библиотека кодирования : libebml v1.2.2 + libmatroska v1.3.0

Видео
Идентификатор : 1
Формат : AVC
Формат/Информация : Advanced Video Codec
Профиль формата : High@L4.1
Параметр CABAC формата : Да
Параметр ReFrames формата : 5 кадров
Параметр GOP формата : N=1
Идентификатор кодека : V_MPEG4/ISO/AVC
Продолжительность : 31 м.
Битрейт : 5995 Кбит/сек
Ширина : 1280 пикселей
Высота : 720 пикселей
Соотношение сторон : 16:9
Режим частоты кадров : Постоянный
Частота кадров : 23,976 кадра/сек
Цветовое пространство : YUV
Субдискретизация насыщенности : 4:2:0
Битовая глубина : 8 бит
Тип развёртки : Прогрессивная
Бит/(Пиксели*Кадры) : 0.221
Размер потока : 1,05 Гбайт (58%)
Заголовок : 1280x720 @ 4880 Kbps
Библиотека кодирования : x264 core 59 r808M ff5059a
Настройки программы : cabac=1 / ref=5 / deblock=1:-3:-3 / analyse=0x3:0x133 / me=umh / subme=7 / me-prepass=0 / brdo=1 / mixed_ref=1 / me_range=16 / chroma_me=1 / trellis=0 / 8x8dct=1 / cqm=2 / deadzone=6,4 / chroma_qp_offset=0 / threads=6 / nr=0 / decimate=1 / mbaff=0 / bframes=5 / b_pyramid=1 / b_adapt=1 / b_bias=0 / direct=1 / wpredb=1 / bime=1 / keyint=250 / keyint_min=25 / scenecut=40(pre) / rc=2pass / bitrate=4880 / ratetol=1.0 / rceq='blurCplx^(1-qComp)' / qcomp=1.00 / qpmin=10 / qpmax=51 / qpstep=4 / cplxblur=20.0 / qblur=0.5 / ip_ratio=1.40 / pb_ratio=1.30 / aq=2:1.00
Язык : English
Default : Да
Forced : Нет

Аудио #1
Идентификатор : 2
Формат : DTS
Формат/Информация : Digital Theater Systems
Режим : 16
Параметр Endianness формата : Big
Идентификатор кодека : A_DTS
Продолжительность : 31 м.
Вид битрейта : Постоянный
Битрейт : 1509 Кбит/сек
Каналы : 6 каналов
Расположение каналов : Front: L C R, Side: L R, LFE
Частота : 48,0 КГц
Битовая глубина : 24 бит
Метод сжатия : С потерями
Размер потока : 342 Мбайт (19%)
Заголовок : DTS 5.1 @ 1536 kbps – Одноголосый закадровый (Д.Строев)
Язык : Russian
Default : Да
Forced : Нет

Аудио #2
Идентификатор : 3
Формат : DTS
Формат/Информация : Digital Theater Systems
Режим : 16
Параметр Endianness формата : Big
Идентификатор кодека : A_DTS
Продолжительность : 31 м.
Вид битрейта : Постоянный
Битрейт : 1509 Кбит/сек
Каналы : 6 каналов
Расположение каналов : Front: L C R, Side: L R, LFE
Частота : 48,0 КГц
Битовая глубина : 24 бит
Метод сжатия : С потерями
Размер потока : 342 Мбайт (19%)
Заголовок : DTS 5.1 @ 1536 kbps
Язык : English
Default : Нет
Forced : Нет

Аудио #3
Идентификатор : 4
Формат : Vorbis
Параметр Floor формата : 1
Идентификатор кодека : A_VORBIS
Продолжительность : 27 м.
Вид битрейта : Переменный
Битрейт : 80,0 Кбит/сек
Каналы : 2 канала
Частота : 48,0 КГц
Метод сжатия : С потерями
Размер потока : 15,9 Мбайт (1%)
Заголовок : OGG 2.0 80 Kbps Commentary by Jenji Kohan & Randy Newman
Библиотека кодирования : libVorbis 1.2 (UTC 2007-06-22)
Язык : English
Default : Нет
Forced : Нет
Программа кодирования : Made with BeSweet v1.5b31
Encoded_Application/Url : http://DSPguru.doom9.org

Текст #1
Идентификатор : 5
Формат : UTF-8
Идентификатор кодека : S_TEXT/UTF8
Идентификатор кодека/Информация : UTF-8 Plain Text
Заголовок : Vipere
Язык : Russian
Default : Нет
Forced : Нет

Текст #2
Идентификатор : 6
Формат : UTF-8
Идентификатор кодека : S_TEXT/UTF8
Идентификатор кодека/Информация : UTF-8 Plain Text
Язык : English
Default : Нет
Forced : Нет


Страна: США
Жанр: драма, комедия, криминал
Год выпуска: 2007
Продолжительность: ~30 мин.
Перевод:
  • Профессиональный (Одноголосый закадровый) [Д.Строев] - русский
Субтитры: Russian , English
Оригинальная дорожка: английский


Режиссер: Крейг Зиск, Майкл Трим, Скотт Эллис

В ролях: Мэри-Луиз Паркер / Mary-Louise Parker (Nancy Botwin), Хантер Пэрриш / Hunter Parrish (Silas Botwin), Александр Гоулд / Alexander Gould (Shane Botwin), Кевин Нилон / Kevin Nealon (Doug Wilson), Джастин Кирк / Justin Kirk (Andy Botwin), Элизабет Перкинс / Elizabeth Perkins (Celia Hodes), Энди Милдер / Andy Milder (Dean Hodes), Романи Малко / Romany Malco (Conrad Shepard), Тони Патано / Tonye Patano (Heylia James)
Season 3, Episode 1-15
Episode 1: Doing the Backstroke
Episode 2: A Pool and His Money
Episode 3: The Brick Dance
Episode 4: Sh*t Highway
Episode 5: Bill Sussman
Episode 6: Grasshopper
Episode 7: He Taught Me How to Drive By
Episode 8: The Two Mrs. Scottsons
Episode 9: Release the Hounds
Episode 10: Roy Till Called
Episode 11: Cankles
Episode 12: The Dark Time
Episode 13: Risk
Episode 14: Protection
Episode 15: Go
Качество видео: BDRip 720p (by dabyg)
Формат видео: MKV

Видео: MPEG-4 AVC Video / ~6000 kbps / 1280x720 / 23,976 fps / High Profile 4.1
Аудио:
  • Russian: DTS, 48 kHz, 3/2 (L,C,R,l,r) + LFE ch, ~1536.00 |Д.Строев|
  • English: DTS, 48 kHz, 3/2 (L,C,R,l,r) + LFE ch, ~1536.00
  • English: OGG, 48 kHz, 2/0 (L,R) + LFE ch, ~80.00 |Commentary|
Формат субтитров: softsub (SRT)
Переведено и озвучено с 1-7 серию
3 сезона!!!
Weeds S03 2007 1080p US Blu-ray AVC DTS-HD MA 7.1
Общее
Уникальный идентификатор : 214528149017781676762258172517374259008 (0xA1649E5D45DBD986BFD4D22058046F40)
Полное имя : E:\Weeds.S03.2007.720p.BluRay\Weeds.S02E01.720p.BluRay.Rus.Eng.mkv
Формат : Matroska
Версия формата : Version 2
Размер файла : 1,79 Гбайт
Продолжительность : 31 м.
Общий поток : 8094 Кбит/сек
Дата кодирования : UTC 2012-12-16 10:05:20
Программа кодирования : mkvmerge v5.0.1 ('Es ist Sommer') built on Oct 9 2011 11:55:43
Библиотека кодирования : libebml v1.2.2 + libmatroska v1.3.0

Видео
Идентификатор : 1
Формат : AVC
Формат/Информация : Advanced Video Codec
Профиль формата : High@L4.1
Параметр CABAC формата : Да
Параметр ReFrames формата : 5 кадров
Параметр GOP формата : N=1
Идентификатор кодека : V_MPEG4/ISO/AVC
Продолжительность : 31 м.
Битрейт : 5995 Кбит/сек
Ширина : 1280 пикселей
Высота : 720 пикселей
Соотношение сторон : 16:9
Режим частоты кадров : Постоянный
Частота кадров : 23,976 кадра/сек
Цветовое пространство : YUV
Субдискретизация насыщенности : 4:2:0
Битовая глубина : 8 бит
Тип развёртки : Прогрессивная
Бит/(Пиксели*Кадры) : 0.221
Размер потока : 1,05 Гбайт (58%)
Заголовок : 1280x720 @ 4880 Kbps
Библиотека кодирования : x264 core 59 r808M ff5059a
Настройки программы : cabac=1 / ref=5 / deblock=1:-3:-3 / analyse=0x3:0x133 / me=umh / subme=7 / me-prepass=0 / brdo=1 / mixed_ref=1 / me_range=16 / chroma_me=1 / trellis=0 / 8x8dct=1 / cqm=2 / deadzone=6,4 / chroma_qp_offset=0 / threads=6 / nr=0 / decimate=1 / mbaff=0 / bframes=5 / b_pyramid=1 / b_adapt=1 / b_bias=0 / direct=1 / wpredb=1 / bime=1 / keyint=250 / keyint_min=25 / scenecut=40(pre) / rc=2pass / bitrate=4880 / ratetol=1.0 / rceq='blurCplx^(1-qComp)' / qcomp=1.00 / qpmin=10 / qpmax=51 / qpstep=4 / cplxblur=20.0 / qblur=0.5 / ip_ratio=1.40 / pb_ratio=1.30 / aq=2:1.00
Язык : English
Default : Да
Forced : Нет

Аудио #1
Идентификатор : 2
Формат : DTS
Формат/Информация : Digital Theater Systems
Режим : 16
Параметр Endianness формата : Big
Идентификатор кодека : A_DTS
Продолжительность : 31 м.
Вид битрейта : Постоянный
Битрейт : 1509 Кбит/сек
Каналы : 6 каналов
Расположение каналов : Front: L C R, Side: L R, LFE
Частота : 48,0 КГц
Битовая глубина : 24 бит
Метод сжатия : С потерями
Размер потока : 342 Мбайт (19%)
Заголовок : DTS 5.1 @ 1536 kbps – Одноголосый закадровый (Д.Строев)
Язык : Russian
Default : Да
Forced : Нет

Аудио #2
Идентификатор : 3
Формат : DTS
Формат/Информация : Digital Theater Systems
Режим : 16
Параметр Endianness формата : Big
Идентификатор кодека : A_DTS
Продолжительность : 31 м.
Вид битрейта : Постоянный
Битрейт : 1509 Кбит/сек
Каналы : 6 каналов
Расположение каналов : Front: L C R, Side: L R, LFE
Частота : 48,0 КГц
Битовая глубина : 24 бит
Метод сжатия : С потерями
Размер потока : 342 Мбайт (19%)
Заголовок : DTS 5.1 @ 1536 kbps
Язык : English
Default : Нет
Forced : Нет

Аудио #3
Идентификатор : 4
Формат : Vorbis
Параметр Floor формата : 1
Идентификатор кодека : A_VORBIS
Продолжительность : 27 м.
Вид битрейта : Переменный
Битрейт : 80,0 Кбит/сек
Каналы : 2 канала
Частота : 48,0 КГц
Метод сжатия : С потерями
Размер потока : 15,9 Мбайт (1%)
Заголовок : OGG 2.0 80 Kbps Commentary by Jenji Kohan & Randy Newman
Библиотека кодирования : libVorbis 1.2 (UTC 2007-06-22)
Язык : English
Default : Нет
Forced : Нет
Программа кодирования : Made with BeSweet v1.5b31
Encoded_Application/Url : http://DSPguru.doom9.org

Текст #1
Идентификатор : 5
Формат : UTF-8
Идентификатор кодека : S_TEXT/UTF8
Идентификатор кодека/Информация : UTF-8 Plain Text
Заголовок :
Язык : Russian
Default : Нет
Forced : Нет

Текст #2
Идентификатор : 6
Формат : UTF-8
Идентификатор кодека : S_TEXT/UTF8
Идентификатор кодека/Информация : UTF-8 Plain Text
Язык : English
Default : Нет
Forced : Нет
Информация о раздаче
При перезаливе указывайте, пож-та, автора рипов dabyg и R.G. TNClub, а также прикрепляйте лычку или баннер.
Пожалуйста, оставайтесь на раздаче как можно дольше!
Релиз специально для Tapochek.net
Все раздачи R.G.TNClub


info [Профиль]  [ЛС] 

post 26-Янв-2015 22:43 (спустя 4 часа) [-]-1[+]

Топик был перенесен из форума Оформление раздач (R.G. TNClub) в форум Зарубежные сериалы

BZzz
 

Tabushi00

Стаж: 2 года 11 месяцев

Сообщений: 11

Рейтинг

post 26-Янв-2015 23:38 (спустя 5 часов) [-]1[+]

[Цитировать] 

Как жаль что моя дюна не поддерживает DTS
info [Профиль]  [ЛС] 

AlienHouse6032

Пол: Пол:Муж

Стаж: 3 года 7 месяцев

Сообщений: 1116

Предупреждений: 4

Канада
Рейтинг

post 26-Янв-2015 23:57 (спустя 18 минут) [-]4[+]

[Цитировать] 

а всё таки

Цитата:

Мэри-Луиз Паркер / Mary-Louise Parker
хороша. а ей ведь уже 50 лет (2 августа, 1964 ) ... ни когда бы ни дал 50. макси 35-40 ...
info [Профиль]  [ЛС] 

IlyaJaguar

Пол: Пол:Муж

Стаж: 4 года 8 месяцев

Сообщений: 3

Россия
Рейтинг

post 27-Янв-2015 00:05 (спустя 7 минут) [-]0[+]

[Цитировать] 

Tabushi00 писал(а):

Как жаль что моя дюна не поддерживает DTS
Я свою Дюну вылечил этим патчем:
http://dunehelp.ru/полезные-утилиты-для-плееров-dune/#link_11
info [Профиль]  [ЛС] 

apollo90 ua

Пол: Пол:Муж

Стаж: 6 лет 8 месяцев

Сообщений: 408

Рейтинг

post 27-Янв-2015 01:15 (спустя 1 час 10 минут) [-]2[+]

[Цитировать] 

Год назад посмотрел все сезоны, оторваться было сложно. Умеют же делать офигенные сериалы

_________________
info [Профиль]  [ЛС] 

dabyg

Пол: Пол:Муж

Стаж: 3 года 9 месяцев

Сообщений: 152

Россия
Рейтинг

post 27-Янв-2015 01:25 (спустя 9 минут) [-]3[+]

[Цитировать] 

apollo90 ua писал(а):

Год назад посмотрел все сезоны, оторваться было сложно. Умеют же делать офигенные сериалы
Полностью с вами солидарен но дубляж так себе, вот авторский перевод от Д.Строева (правильный) в этом сериале проста песня kolob_111

_________________
Под самым красивым хвостом павлина скрывается самая обычная куриная жопа.
Так что меньше пафоса, господа.
info [Профиль]  [ЛС] 

Alexx_z

Стаж: 3 года 8 месяцев

Сообщений: 61

Рейтинг

post 27-Янв-2015 02:10 (спустя 45 минут) [-]0[+]

[Цитировать] 

Сериал супер! Всем советую смотреть, главное потерпеть во время первого сезона, там достаточно вяло всё, как по мне)
info [Профиль]  [ЛС] 

Silurd

Стаж: 3 года 8 месяцев

Сообщений: 10

Рейтинг

post 27-Янв-2015 05:48 (спустя 3 часа) [-]0[+]

[Цитировать] 

Годный комедийный сериал с раскрепощенной мамашей в главной роли.
info [Профиль]  [ЛС] 

Sergey_123

Стаж: 2 года

Сообщений: 2

Рейтинг

post 27-Янв-2015 06:26 (спустя 38 минут) [-]0[+]

[Цитировать] 

Удивляет в названии

Цитата:

(Сезоны 1-8)
Слежу за переводом Строева с другого ресурса, а тут увидел, что весь сериал, да ещё и в одноголоске, обрадовался неимоверно, но всё-таки ничего нового раздача не показала.
info [Профиль]  [ЛС] 

dabyg

Пол: Пол:Муж

Стаж: 3 года 9 месяцев

Сообщений: 152

Россия
Рейтинг

post 27-Янв-2015 13:27 (спустя 7 часов) [-]0[+]

[Цитировать] 

Sergey_123 писал(а):

Удивляет в названии

Цитата:

(Сезоны 1-8)
Слежу за переводом Строева с другого ресурса, а тут увидел, что весь сериал, да ещё и в одноголоске, обрадовался неимоверно, но всё-таки ничего нового раздача не показала.
Что вас удивляет, если это полная коллекция издания данного сериала с добавлением новых серий,а на стороннем ресурсе там сезоны по отдельности вот и вся разница. kolob_141

_________________
Под самым красивым хвостом павлина скрывается самая обычная куриная жопа.
Так что меньше пафоса, господа.
info [Профиль]  [ЛС] 

AlienHouse6032

Пол: Пол:Муж

Стаж: 3 года 7 месяцев

Сообщений: 1116

Предупреждений: 4

Канада
Рейтинг

post 27-Янв-2015 17:46 (спустя 4 часа) [-]1[+]

[Цитировать] 

dabyg писал(а):

Sergey_123 писал(а):

Удивляет в названии

Цитата:

(Сезоны 1-8)
Слежу за переводом Строева с другого ресурса, а тут увидел, что весь сериал, да ещё и в одноголоске, обрадовался неимоверно, но всё-таки ничего нового раздача не показала.
Что вас удивляет, если это полная коллекция издания данного сериала с добавлением новых серий,а на стороннем ресурсе там сезоны по отдельности вот и вся разница. kolob_141
ведь там количество серий 102 (1-8 сезон). а тут 10+12+15 или это не полная раздача ?!
info [Профиль]  [ЛС] 

dabyg

Пол: Пол:Муж

Стаж: 3 года 9 месяцев

Сообщений: 152

Россия
Рейтинг

post 27-Янв-2015 18:35 (спустя 49 минут) [-]0[+]

[Цитировать] 

AlienHouse6032 писал(а):

dabyg писал(а):

Sergey_123 писал(а):

Удивляет в названии

Цитата:

(Сезоны 1-8)
Слежу за переводом Строева с другого ресурса, а тут увидел, что весь сериал, да ещё и в одноголоске, обрадовался неимоверно, но всё-таки ничего нового раздача не показала.
Что вас удивляет, если это полная коллекция издания данного сериала с добавлением новых серий,а на стороннем ресурсе там сезоны по отдельности вот и вся разница. kolob_141
ведь там количество серий 102 (1-8 сезон). а тут 10+12+15 или это не полная раздача ?!
Тут всего три сезона,при последующим переводе серий будут добавляться как серии так и сезоны kolob_141

_________________
Под самым красивым хвостом павлина скрывается самая обычная куриная жопа.
Так что меньше пафоса, господа.
info [Профиль]  [ЛС] 

Sergey_123

Стаж: 2 года

Сообщений: 2

Рейтинг

post 27-Янв-2015 21:54 (спустя 3 часа) [-]1[+]

[Цитировать] 

dabyg писал(а):

Sergey_123 писал(а):

Удивляет в названии

Цитата:

(Сезоны 1-8)
Слежу за переводом Строева с другого ресурса, а тут увидел, что весь сериал, да ещё и в одноголоске, обрадовался неимоверно, но всё-таки ничего нового раздача не показала.
Что вас удивляет, если это полная коллекция издания данного сериала с добавлением новых серий,а на стороннем ресурсе там сезоны по отдельности вот и вся разница. kolob_141
AlienHouse6032 абсолютно верно передал мою мысль
не путайте людей, измените название раздачи на реальное
info [Профиль]  [ЛС] 

Storm1225

Пол: Пол:Муж

Стаж: 3 года 11 месяцев

Сообщений: 25

Россия
Рейтинг

post 05-Мар-2015 08:53 (спустя 1 месяц 8 дней) [-]0[+]

[Цитировать] 

А продолжение здесь будет появляться?

_________________
info [Профиль]  [ЛС] 

dabyg

Пол: Пол:Муж

Стаж: 3 года 9 месяцев

Сообщений: 152

Россия
Рейтинг

post 26-Апр-2015 02:51 (спустя 1 месяц 20 дней) [-]0[+]

[Цитировать] 

Storm1225 писал(а):

А продолжение здесь будет появляться?
Будет., когда новые серии выйдут с переводам kolob_125

_________________
Под самым красивым хвостом павлина скрывается самая обычная куриная жопа.
Так что меньше пафоса, господа.
info [Профиль]  [ЛС] 

Lacoste14

Пол: Пол:Муж

Стаж: 2 года 6 месяцев

Сообщений: 66

Россия
Рейтинг

post 26-Апр-2015 14:51 (спустя 12 часов) [-]0[+]

[Цитировать] 

а в кубиках есть он?

_________________
info [Профиль]  [ЛС] 

Garfield1

Стаж: 3 года 11 месяцев

Сообщений: 7

Рейтинг

post 27-Апр-2015 19:58 (спустя 1 день 5 часов) [-]0[+]

[Цитировать] 

Господа, из какой серии этот скриншот?
info [Профиль]  [ЛС] 

kekcoid

Пол: Пол:Муж

Стаж: 4 года 1 месяц

Сообщений: 138

СССР
Рейтинг

post 28-Апр-2015 01:10 (спустя 5 часов) [-]1[+]

[Цитировать] 

Спасибо автору релиза!
Шикарный сериал- как сказали выше, действительно трудно оторваться!
Маманя прям какой-то мистер Хайзенберг в юбке...))

Garfield1 писал(а):

Господа, из какой серии этот скриншот?
если не ошибаюсь, 3-й сезон, 1-я серия, практически ее начало...))

_________________
"Никто не умрет девственником! Жизнь всех нас поимеет..." Kurt Donald Cobain ©
info [Профиль]  [ЛС] 

Vladilo

Пол: Пол:Муж

Стаж: 6 лет 7 месяцев

Сообщений: 53

Украина
Рейтинг

post 28-Апр-2015 10:05 (спустя 8 часов) [-]0[+]

[Цитировать] 

kekcoid
Или последняя серия второго сезона.)
info [Профиль]  [ЛС] 

Vladilo

Пол: Пол:Муж

Стаж: 6 лет 7 месяцев

Сообщений: 53

Украина
Рейтинг

post 03-Июн-2015 13:54 (спустя 1 месяц 5 дней) [-]0[+]

[Цитировать] 

Ребят, как скоро ожидаются новые переведенные серии?
info [Профиль]  [ЛС] 

nosgoth

Стаж: 2 года 10 месяцев

Сообщений: 457

Сомали
Рейтинг

post 28-Июн-2015 19:08 (спустя 25 дней) [-]0[+]

[Цитировать] 

Сериал классный. Смотрел подряд все сезоны и они все есть в переводе точно!
Получил массу позитива.
info [Профиль]  [ЛС] 

dabyg

Пол: Пол:Муж

Стаж: 3 года 9 месяцев

Сообщений: 152

Россия
Рейтинг

post 28-Июн-2015 21:42 (спустя 2 часа 33 минуты) [-]0[+]

[Цитировать] 

nosgoth писал(а):

Сериал классный. Смотрел подряд все сезоны и они все есть в переводе точно!
Получил массу позитива.
Строева всех серий нет ,не путайте людей kolob_104

_________________
Под самым красивым хвостом павлина скрывается самая обычная куриная жопа.
Так что меньше пафоса, господа.
info [Профиль]  [ЛС] 

Vladilo

Пол: Пол:Муж

Стаж: 6 лет 7 месяцев

Сообщений: 53

Украина
Рейтинг

post 28-Июн-2015 23:39 (спустя 1 час 57 минут) [-]0[+]

[Цитировать] 

Уже 6 месяцев прошло, когда будет новые серии?
Или тут совсем нет никакой информации?
info [Профиль]  [ЛС] 

post 25-Сен-2015 09:43 (спустя 2 месяца 26 дней) [-]0[+]

Топик был перенесен из форума Зарубежные сериалы в форум Другие рипы от R.G. TNclub

L
 
Показать сообщения:    
Ответить на тему

Текущее время: 06-Дек 16:11

Часовой пояс: GMT + 4



Вы не можете начинать темы
Вы не можете отвечать на сообщения
Вы не можете редактировать свои сообщения
Вы не можете удалять свои сообщения
Вы не можете голосовать в опросах
Вы не можете прикреплять файлы к сообщениям
Вы не можете скачивать файлы