Ошибка

Книга жизни / The Book of Life (Хорхе Р. Гутьеррес) [2014, мультфильм, фэнтези, мелодрама, комедия, приключения, семейный, HDRip]

Ответить на тему
 
Автор Сообщение

koss555

Пол: Пол:Муж

Стаж: 4 года 11 месяцев

Сообщений: 1549

Россия
Рейтинг

post 17-Янв-2015 22:54 1[+]

[Цитировать] 

Книга жизни / The Book of Life

Год выпуска: 2014
Страна: США
Жанр: мультфильм, фэнтези, мелодрама, комедия, приключения, семейный
Продолжительность: 01:35:24
Перевод: Профессиональное (многоголосое)

Режиссер: Хорхе Р. Гутьеррес
Сценарий: Хорхе Р. Гутьеррес, Дуглас Лангдэйл
Продюсер: Аарон Бергер, Брэд Букер, Гильермо дель Торо
Композитор: Густаво Сантаолалья
Художник: Пол Салливан, Саймон Владимир Варела
Монтаж: Стивен Лью, Арен Шоу

В ролях: Диего Луна, Зои Салдана, Ченнинг Татум, Рон Перлман, Кристина Эпплгейт, Айс Кьюб, Кейт дель Кастильо, Гектор Элизондо, Дэнни Трехо, Карлос Аласра

Описание: В мультфильме описывается романтическая история любви на фоне празднования Дня мертвых в Мексике.

Бюджет: $50 000 000
Сборы в США: $49 764 110
Сборы в мире: + $43 963 381 = $93 727 491 сбор
Премьера (мир): 3 октября 2014
Премьера (РФ): 26 февраля 2015, «Двадцатый Век Фокс СНГ»
Рейтинг MPAA:



Качество: HDRip
Формат: AVI
Видео кодек: XviD
Аудио кодеk: AC3
Видео: 720x304 (2.35:1), 23.976 fps, XviD, 1 659 Kbps
Аудио: Аудио #1: AC3, 384 Kbps, 48.0 KHz, 6 ch
General
Complete name : Kniga zhizni .2014.P.HDRip.1400MB.avi
Format : AVI
Format/Info : Audio Video Interleave
File size : 1.37 GiB
Duration : 1h 35mn
Overall bit rate : 2 052 Kbps
Writing application : VirtualDubMod 1.5.10.2 (build 2540/release)
Writing library : VirtualDubMod build 2540/release

Video
ID : 0
Format : MPEG-4 Visual
Format profile : Advanced Simple@L5
Format settings, BVOP : Yes
Format settings, QPel : No
Format settings, GMC : No warppoints
Format settings, Matrix : Default (MPEG)
Codec ID : XVID
Codec ID/Hint : XviD
Duration : 1h 35mn
Bit rate : 1 659 Kbps
Width : 720 pixels
Height : 304 pixels
Display aspect ratio : 2.35:1
Frame rate : 23.976 fps
Color space : YUV
Chroma subsampling : 4:2:0
Bit depth : 8 bits
Scan type : Progressive
Bits/(Pixel*Frame) : 0.316
Stream size : 1.11 GiB (81%)
Writing library : XviD 1.2.1 (UTC 2008-12-04)

Audio
ID : 1
Format : AC-3
Format/Info : Audio Coding 3
Mode extension : CM (complete main)
Codec ID : 2000
Duration : 1h 35mn
Bit rate mode : Constant
Bit rate : 384 Kbps
Channel(s) : 6 channels
Channel positions : Front: L C R, Side: L R, LFE
Sampling rate : 48.0 KHz
Bit depth : 16 bits
Stream size : 262 MiB (19%)
Alignment : Split accross interleaves
Interleave, duration : 42 ms (1.00 video frame)
Interleave, preload duration : 500 ms
info [Профиль]  [ЛС] 

post 17-Янв-2015 22:55 (спустя 55 секунд) [-]0[+]

Топик был перенесен из форума Оформление раздач (Кинематограф) в форум Новинки 2014-2015 (Rips)

koss555
 

post 26-Фев-2015 12:05 (спустя 1 месяц 8 дней) [-]0[+]

Топик был перенесен из форума Новинки 2014-2015 (Rips) в форум Зарубежные полнометражные мультфильмы

BZzz
 
Показать сообщения:    
Ответить на тему

Текущее время: 04-Дек 18:20

Часовой пояс: GMT + 4



Вы не можете начинать темы
Вы не можете отвечать на сообщения
Вы не можете редактировать свои сообщения
Вы не можете удалять свои сообщения
Вы не можете голосовать в опросах
Вы не можете прикреплять файлы к сообщениям
Вы не можете скачивать файлы