Ошибка

(Folk, Rock) [LP] [16 bit / 44.1 KHz] Bob Dylan - 50th Anniversary Collection 1964, Mint Vinyl (9xLP) - 2014, FLAC (image+.cue)

Ответить на тему
 
Автор Сообщение

SVD4k

Пол: Пол:Муж

Стаж: 3 года 9 месяцев

Сообщений: 30

СССР
Рейтинг

post 06-Янв-2015 05:54 0[+]

[Цитировать] 


Bob Dylan - 50th Anniversary Collection 1964, Mint Vinyl (9xLP)

Жанр: Folk, Rock
Год выхода альбома, выступления: 2014
Страна исполнителя (группы): USA
Продолжительность: 9xLP's 07:19:17
Носитель: LP's
Страна-производитель диска: Europe
Год выпуска диска: 2014
Издатель (лейбл), Номер по каталогу: Columbia 88875040861
Аудиокодек: FLAC
Тип рипа: image+.cue
Формат раздачи: 16 bit / 44.1 KHz
Доп. информация:
Источник оцифровки: третьим лицом
Состояние винила: MINT
Формат записи: ?
Устройство воспроизведения: Technics SL1200 MK 11
Головка звукоснимателя: Ortophon PRO S
Предварительный усилитель: Onkyo P-304 Pre Amp
АЦП: ?
Программа-оцифровщик: Soundforge PRO 10c
Обработка: ?
Наличие сканов в содержимом раздачи: да, фото

Треклист:
01. The Times They Are A-Changin' [00:02:36]
02. Talkin' World War III Blues [00:04:52]
03. The Lonesome Death Of Hattie Carroll [00:05:26]
04. A Hard Rain's A-Gonna Fall [00:06:02]
05. Restless Farewell [00:05:04]
 
foobar2000 1.3.1 / Замер динамического диапазона (DR) 1.1.1
Дата отчёта: 2015-01-04 23:11:13

--------------------------------------------------------------------------------
Анализ: B. Dylan / 50th Anniversary Collection 1964 [LP 1 side A]
--------------------------------------------------------------------------------

DR Пики RMS Продолжительность трека
--------------------------------------------------------------------------------
DR12 -1.42 дБ -17.13 дБ 2:36 01-The Times They Are A-Changin'
DR13 -2.07 дБ -17.15 дБ 4:53 02-Talkin' World War III Blues
DR13 -1.19 дБ -17.29 дБ 5:27 03-The Lonesome Death Of Hattie Carroll
DR13 -2.46 дБ -17.63 дБ 6:02 04-A Hard Rain's A-Gonna Fall
DR13 -2.53 дБ -17.76 дБ 5:04 05-Restless Farewell
--------------------------------------------------------------------------------

Количество треков: 5
Реальные значения DR: DR13

Частота: 44100 гц
Каналов: 2
Бит на сэмпл: 16
Битрейт: 827 кбит/с
Кодек: FLAC
================================================================================


01. The Lonesome Death Of Hattie Carroll [Live] [00:06:04]
02. Bob And Eric Blues #1 [00:06:37]
03. Black Betty [00:01:22]
04. Come All You Fair And Tender Ladies [00:04:48]
05. Florida Woman [00:02:58]
06. Johnny Cuckoo [00:03:48]
 
foobar2000 1.3.1 / Замер динамического диапазона (DR) 1.1.1
Дата отчёта: 2015-01-04 23:11:16

--------------------------------------------------------------------------------
Анализ: B. Dylan / 50th Anniversary Collection 1964 [LP 1 side B] (1)
Bob Dylan and Eric Von Schmidt / 50th Anniversary Collection 1964 [LP 1 side B] (2)
Eric Von Schmidt / 50th Anniversary Collection 1964 [LP 1 side B] (3)
--------------------------------------------------------------------------------

DR Пики RMS Продолжительность трека
--------------------------------------------------------------------------------
DR11 -2.65 дБ -15.49 дБ 6:05 01-The Lonesome Death Of Hattie Carroll [Live]
DR10 -0.86 дБ -14.17 дБ 6:38 02-Bob And Eric Blues #1
DR11 -2.43 дБ -17.27 дБ 2:58 05-Florida Woman
--------------------------------------------------------------------------------

Количество треков: 3
Реальные значения DR: DR11

Частота: 44100 гц
Каналов: 2
Бит на сэмпл: 16
Битрейт: 762 кбит/с
Кодек: FLAC
================================================================================

--------------------------------------------------------------------------------
Анализ: Traditional, arr. by Bob Dylan and Eric Von Schmidt / 50th Anniversary Collection 1964 [LP 1 side B] (1-2)
Traditional, arr. by Eric Von Schmidt / 50th Anniversary Collection 1964 [LP 1 side B] (3)
--------------------------------------------------------------------------------

DR Пики RMS Продолжительность трека
--------------------------------------------------------------------------------
DR10 -1.97 дБ -14.48 дБ 1:22 03-Black Betty
DR10 -1.39 дБ -14.40 дБ 4:48 04-Come All You Fair And Tender Ladies
DR10 -3.38 дБ -17.56 дБ 3:49 06-Johnny Cuckoo
--------------------------------------------------------------------------------

Количество треков: 3
Реальные значения DR: DR10

Частота: 44100 гц
Каналов: 2
Бит на сэмпл: 16
Битрейт: 762 кбит/с
Кодек: FLAC
================================================================================


01. Money Honey [00:03:33]
02. More And More [00:03:59]
03. Mr. Tambourine Man [00:06:10]
04. Susie Q [00:05:36]
05. Harmonica Duet [00:02:26]
06. Glory, Glory [00:03:09]
 
foobar2000 1.3.1 / Замер динамического диапазона (DR) 1.1.1
Дата отчёта: 2015-01-04 23:11:20

--------------------------------------------------------------------------------
Анализ: B. Dylan / 50th Anniversary Collection 1964 [LP 2 side C] (1)
Bob Dylan and Eric Von Schmidt / 50th Anniversary Collection 1964 [LP 2 side C] (2)
--------------------------------------------------------------------------------

DR Пики RMS Продолжительность трека
--------------------------------------------------------------------------------
DR10 -4.03 дБ -16.59 дБ 6:11 03-Mr. Tambourine Man
DR15 -3.26 дБ -20.53 дБ 2:27 05-Harmonica Duet
--------------------------------------------------------------------------------

Количество треков: 2
Реальные значения DR: DR12

Частота: 44100 гц
Каналов: 2
Бит на сэмпл: 16
Битрейт: 700 кбит/с
Кодек: FLAC
================================================================================

--------------------------------------------------------------------------------
Статистика для: 04-Susie Q
Количество сэмплов: 14827596
Продолжительность: 5:36
--------------------------------------------------------------------------------

Левый Правый

Пики: -2.21 дБ --- -2.27 дБ
Средний RMS: -17.03 дБ --- -16.81 дБ
DR канала: 11.79 дБ --- 11.66 дБ
--------------------------------------------------------------------------------

Реальные значения DR: DR12

Частота: 44100 гц
Каналов: 2
Бит на сэмпл: 16
Битрейт: 700 кбит/с
Кодек: FLAC
================================================================================
--------------------------------------------------------------------------------
Анализ: Jesse Stone / 50th Anniversary Collection 1964 [LP 2 side C] (1)
Traditional, arr. by Bob Dylan and Eric Von Schmidt / 50th Anniversary Collection 1964 [LP 2 side C] (2)
--------------------------------------------------------------------------------

DR Пики RMS Продолжительность трека
--------------------------------------------------------------------------------
DR10 -4.08 дБ -17.07 дБ 3:34 01-Money Honey
DR11 -6.49 дБ -21.64 дБ 3:10 06-Glory, Glory
--------------------------------------------------------------------------------

Количество треков: 2
Реальные значения DR: DR11

Частота: 44100 гц
Каналов: 2
Бит на сэмпл: 16
Битрейт: 700 кбит/с
Кодек: FLAC
================================================================================

--------------------------------------------------------------------------------
Статистика для: 02-More And More
Количество сэмплов: 10567536
Продолжительность: 4:00
--------------------------------------------------------------------------------

Левый Правый

Пики: -5.11 дБ --- -4.16 дБ
Средний RMS: -17.27 дБ --- -16.06 дБ
DR канала: 9.37 дБ --- 9.87 дБ
--------------------------------------------------------------------------------

Реальные значения DR: DR10

Частота: 44100 гц
Каналов: 2
Бит на сэмпл: 16
Битрейт: 700 кбит/с
Кодек: FLAC
================================================================================


01. Dr. Strangelove Blues [00:05:45]
02. Stoned On The Mountain 1 [00:01:34]
03. Stoned On The Mountain 2 [00:03:28]
04. Walkin' Down The Line [00:03:00]
05. Joshua Gone Barbados [00:04:03]
06. With God On Our Side [00:02:00]
07. Don't Think Twice, It's All Right [00:03:16]
 
foobar2000 1.3.1 / Замер динамического диапазона (DR) 1.1.1
Дата отчёта: 2015-01-04 23:11:27

--------------------------------------------------------------------------------
Анализ: B. Dylan / 50th Anniversary Collection 1964 [LP 2 side D]
--------------------------------------------------------------------------------

DR Пики RMS Продолжительность трека
--------------------------------------------------------------------------------
DR10 -6.86 дБ -20.41 дБ 1:34 02-Stoned On The Mountain 1
DR9 -7.97 дБ -19.85 дБ 3:28 03-Stoned On The Mountain 2
DR9 -8.44 дБ -19.60 дБ 3:00 04-Walkin' Down The Line
DR11 -5.49 дБ -20.64 дБ 2:00 06-With God On Our Side
DR11 -6.97 дБ -20.05 дБ 3:17 07-Don't Think Twice, It's All Right
--------------------------------------------------------------------------------

Количество треков: 5
Реальные значения DR: DR10

Частота: 44100 гц
Каналов: 2
Бит на сэмпл: 16
Битрейт: 676 кбит/с
Кодек: FLAC
================================================================================

--------------------------------------------------------------------------------
Анализ: Eric Von Schmidt / 50th Anniversary Collection 1964 [LP 2 side D]
--------------------------------------------------------------------------------

DR Пики RMS Продолжительность трека
--------------------------------------------------------------------------------
DR11 -4.85 дБ -18.89 дБ 5:45 01-Dr. Strangelove Blues
DR11 -7.79 дБ -22.16 дБ 4:03 05-Joshua Gone Barbados
--------------------------------------------------------------------------------

Количество треков: 2
Реальные значения DR: DR11

Частота: 44100 гц
Каналов: 2
Бит на сэмпл: 16
Битрейт: 676 кбит/с
Кодек: FLAC
================================================================================


01. The Times They Are A-Changin' [00:03:35]
02. Girl From The North Country [00:03:46]
03. Who Killed Davey Moore? [00:03:19]
04. Talkin' John Birch Paranoid Blues [00:03:27]
05. Ballad Of Hollis Brown [00:05:55]
06. It Ain't Me Babe [00:04:30]
 
foobar2000 1.3.1 / Замер динамического диапазона (DR) 1.1.1
Дата отчёта: 2015-01-04 23:11:34

--------------------------------------------------------------------------------
Анализ: B. Dylan / 50th Anniversary Collection 1964 [LP 3 side E]
--------------------------------------------------------------------------------

DR Пики RMS Продолжительность трека
--------------------------------------------------------------------------------
DR12 -4.57 дБ -19.07 дБ 3:35 01-The Times They Are A-Changin'
DR13 -3.12 дБ -21.34 дБ 3:47 02-Girl From The North Country
DR12 -2.96 дБ -18.61 дБ 3:20 03-Who Killed Davey Moore?
DR12 -3.23 дБ -17.75 дБ 3:28 04-Talkin' John Birch Paranoid Blues
DR14 -3.58 дБ -21.03 дБ 5:55 05-Ballad Of Hollis Brown
DR11 -4.17 дБ -19.97 дБ 4:31 06-It Ain't Me Babe
--------------------------------------------------------------------------------

Количество треков: 6
Реальные значения DR: DR12

Частота: 44100 гц
Каналов: 2
Бит на сэмпл: 16
Битрейт: 825 кбит/с
Кодек: FLAC
================================================================================


01. Walls Of Red Wing [00:04:00]
02. Chimes Of Freedom [00:07:32]
03. Mr. Tambourine Man [00:06:37]
04. Eternal Circle [00:03:00]
 
foobar2000 1.3.1 / Замер динамического диапазона (DR) 1.1.1
Дата отчёта: 2015-01-04 23:11:38

--------------------------------------------------------------------------------
Анализ: B. Dylan / 50th Anniversary Collection 1964 [LP 3 side F]
--------------------------------------------------------------------------------

DR Пики RMS Продолжительность трека
--------------------------------------------------------------------------------
DR12 -1.97 дБ -17.43 дБ 4:01 01-Walls Of Red Wing
DR12 -0.14 дБ -16.69 дБ 7:33 02-Chimes Of Freedom
DR13 -4.63 дБ -22.19 дБ 6:38 03-Mr. Tambourine Man
DR12 -4.84 дБ -20.84 дБ 3:01 04-Eternal Circle
--------------------------------------------------------------------------------

Количество треков: 4
Реальные значения DR: DR12

Частота: 44100 гц
Каналов: 2
Бит на сэмпл: 16
Битрейт: 860 кбит/с
Кодек: FLAC
================================================================================


01. A Hard Rain's A-Gonna Fall [00:07:44]
02. Talkin' World War III Blues [00:05:40]
03. Don't Think Twice, It's All Right [00:05:07]
04. Only A Pawn In Their Game [00:04:58]
 
foobar2000 1.3.1 / Замер динамического диапазона (DR) 1.1.1
Дата отчёта: 2015-01-04 23:11:43

--------------------------------------------------------------------------------
Анализ: B. Dylan / 50th Anniversary Collection 1964 [LP 4 side G]
--------------------------------------------------------------------------------

DR Пики RMS Продолжительность трека
--------------------------------------------------------------------------------
DR11 -5.53 дБ -20.40 дБ 7:45 01-A Hard Rain's A-Gonna Fall
DR12 -4.85 дБ -19.68 дБ 5:40 02-Talkin' World War III Blues
DR11 -5.82 дБ -21.41 дБ 5:08 03-Don't Think Twice, It's All Right
DR12 -5.81 дБ -21.99 дБ 4:59 04-Only A Pawn In Their Game
--------------------------------------------------------------------------------

Количество треков: 4
Реальные значения DR: DR11

Частота: 44100 гц
Каналов: 2
Бит на сэмпл: 16
Битрейт: 825 кбит/с
Кодек: FLAC
================================================================================


01. With God On Our Side [00:06:20]
02. The Lonesome Death Of Hattie Carroll [00:06:54]
03. Restless Farewell [00:07:12]
04. When The Ship Comes In [00:03:41]
 
foobar2000 1.3.1 / Замер динамического диапазона (DR) 1.1.1
Дата отчёта: 2015-01-04 23:11:48

--------------------------------------------------------------------------------
Анализ: B. Dylan / 50th Anniversary Collection 1964 [LP 4 side H]
--------------------------------------------------------------------------------

DR Пики RMS Продолжительность трека
--------------------------------------------------------------------------------
DR11 -3.82 дБ -18.41 дБ 6:21 01-With God On Our Side
DR12 -4.90 дБ -21.72 дБ 6:54 02-The Lonesome Death Of Hattie Carroll
DR13 -5.52 дБ -23.36 дБ 7:13 03-Restless Farewell
DR12 -6.07 дБ -21.29 дБ 3:42 04-When The Ship Comes In
--------------------------------------------------------------------------------

Количество треков: 4
Реальные значения DR: DR12

Частота: 44100 гц
Каналов: 2
Бит на сэмпл: 16
Битрейт: 808 кбит/с
Кодек: FLAC
================================================================================


01. Denise [00:03:01]
02. It Ain't Me Babe TK 1 [00:02:06]
03. Spanish Harlem Incident TK 3 [00:03:09]
04. Spanish Harlem Incident TK 4 [00:01:30]
05. Ballad In Plain D TK 2 [00:02:02]
06. I Don't Believe You TK 1 [00:04:07]
07. I Don't Believe You TK3 [00:03:55]
 
foobar2000 1.3.1 / Замер динамического диапазона (DR) 1.1.1
Дата отчёта: 2015-01-04 23:11:52

--------------------------------------------------------------------------------
Анализ: B. Dylan / 50th Anniversary Collection 1964 [LP 5 side I]
--------------------------------------------------------------------------------

DR Пики RMS Продолжительность трека
--------------------------------------------------------------------------------
DR11 -3.75 дБ -19.68 дБ 3:01 01-Denise
DR12 -6.10 дБ -22.31 дБ 2:07 02-It Ain't Me Babe TK 1
DR12 -5.17 дБ -20.63 дБ 3:09 03-Spanish Harlem Incident TK 3
DR11 -7.89 дБ -21.91 дБ 1:31 04-Spanish Harlem Incident TK 4
DR13 -8.06 дБ -23.84 дБ 2:03 05-Ballad In Plain D TK 2
DR13 -3.87 дБ -20.34 дБ 4:07 06-I Don't Believe You TK 1
DR12 -3.63 дБ -19.70 дБ 3:55 07-I Don't Believe You TK3
--------------------------------------------------------------------------------

Количество треков: 7
Реальные значения DR: DR12

Частота: 44100 гц
Каналов: 2
Бит на сэмпл: 16
Битрейт: 794 кбит/с
Кодек: FLAC
================================================================================


01. Chimes Of Freedom TK 1 [00:03:11]
02. Chimes Of Freedom TK 3 [00:03:06]
03. Mr. Tambourine Man TK 1 [00:00:45]
04. Black Crow Blues TK 1 [00:01:19]
05. Black Crow Blues TK 2 [00:03:47]
06. I Shall Be Free No. 10 TK 1 [00:00:50]
07. I Shall Be Free No. 10 TK 2 [00:03:17]
08. I Shall Be Free No. 10 TK 3 [00:05:09]
09. I Shall Be Free No. 10 TK 4 [00:04:45]
 
foobar2000 1.3.1 / Замер динамического диапазона (DR) 1.1.1
Дата отчёта: 2015-01-04 23:11:58

--------------------------------------------------------------------------------
Анализ: B. Dylan / 50th Anniversary Collection 1964 [LP 5 side J]
--------------------------------------------------------------------------------

DR Пики RMS Продолжительность трека
--------------------------------------------------------------------------------
DR12 -6.67 дБ -20.71 дБ 3:12 01-Chimes Of Freedom TK 1
DR12 -7.28 дБ -22.57 дБ 3:07 02-Chimes Of Freedom TK 3
DR12 -6.99 дБ -21.80 дБ 0:46 03-Mr. Tambourine Man TK 1
DR11 -5.16 дБ -19.69 дБ 1:20 04-Black Crow Blues TK 1
DR12 -3.89 дБ -18.41 дБ 3:48 05-Black Crow Blues TK 2
DR11 -6.46 дБ -21.72 дБ 0:50 06-I Shall Be Free No. 10 TK 1
DR13 -3.23 дБ -19.15 дБ 3:17 07-I Shall Be Free No. 10 TK 2
DR13 -3.67 дБ -20.18 дБ 5:09 08-I Shall Be Free No. 10 TK 3
DR13 -4.73 дБ -20.48 дБ 4:45 09-I Shall Be Free No. 10 TK 4
--------------------------------------------------------------------------------

Количество треков: 9
Реальные значения DR: DR12

Частота: 44100 гц
Каналов: 2
Бит на сэмпл: 16
Битрейт: 787 кбит/с
Кодек: FLAC
================================================================================


01. It Ain't Me Babe [00:03:46]
02. All I Really Want To Do [00:03:40]
03. To Ramona [00:04:25]
04. Mama, You Been On My Mind w. Joan Baez [00:02:31]
05. It Ain't Me Babe w. Joan Baez [00:03:54]
06. With God On Our Side w. Joan Baez [00:05:34]
 
foobar2000 1.3.1 / Замер динамического диапазона (DR) 1.1.1
Дата отчёта: 2015-01-04 23:12:03

--------------------------------------------------------------------------------
Анализ: B. Dylan / 50th Anniversary Collection 1964 [LP 6 side K]
--------------------------------------------------------------------------------

DR Пики RMS Продолжительность трека
--------------------------------------------------------------------------------
DR12 -3.88 дБ -21.07 дБ 3:46 01-It Ain't Me Babe
DR12 -6.68 дБ -21.97 дБ 3:40 02-All I Really Want To Do
DR13 -5.73 дБ -22.78 дБ 4:25 03-To Ramona
DR8 -6.76 дБ -16.82 дБ 2:32 04-Mama, You Been On My Mind w. Joan Baez
DR7 -7.69 дБ -17.58 дБ 3:55 05-It Ain't Me Babe w. Joan Baez
DR8 -8.23 дБ -18.74 дБ 5:35 06-With God On Our Side w. Joan Baez
--------------------------------------------------------------------------------

Количество треков: 6
Реальные значения DR: DR10

Частота: 44100 гц
Каналов: 2
Бит на сэмпл: 16
Битрейт: 711 кбит/с
Кодек: FLAC
================================================================================


01. The Times They Are A-Changin' [00:03:33]
02. Girl From The North Country [00:04:05]
03. Who Killed Davey Moore? [00:03:39]
04. Talkin' John Birch Paranoid Blues [00:04:11]
05. To Ramona [00:05:10]
06. Ballad Of Hollis Brown [00:05:49]
 
foobar2000 1.3.1 / Замер динамического диапазона (DR) 1.1.1
Дата отчёта: 2015-01-04 23:12:08

--------------------------------------------------------------------------------
Анализ: B. Dylan / 50th Anniversary Collection 1964 [LP 6 side L]
--------------------------------------------------------------------------------

DR Пики RMS Продолжительность трека
--------------------------------------------------------------------------------
DR8 -6.78 дБ -17.49 дБ 3:34 01-The Times They Are A-Changin'
DR8 -6.20 дБ -16.64 дБ 4:06 02-Girl From The North Country
DR8 -8.10 дБ -17.97 дБ 3:40 03-Who Killed Davey Moore?
DR8 -6.45 дБ -16.82 дБ 4:12 04-Talkin' John Birch Paranoid Blues
DR8 -7.36 дБ -18.24 дБ 5:11 05-To Ramona
DR8 -7.64 дБ -17.55 дБ 5:50 06-Ballad Of Hollis Brown
--------------------------------------------------------------------------------

Количество треков: 6
Реальные значения DR: DR8

Частота: 44100 гц
Каналов: 2
Бит на сэмпл: 16
Битрейт: 683 кбит/с
Кодек: FLAC
================================================================================


01. Chimes Of Freedom [00:07:18]
02. I Don't Believe You [00:04:18]
03. It's Alright, Ma (I'm Only Bleeding) [00:09:55]
 
foobar2000 1.3.1 / Замер динамического диапазона (DR) 1.1.1
Дата отчёта: 2015-01-04 23:12:12

--------------------------------------------------------------------------------
Анализ: B. Dylan / 50th Anniversary Collection 1964 [LP 7 side M]
--------------------------------------------------------------------------------

DR Пики RMS Продолжительность трека
--------------------------------------------------------------------------------
DR9 -3.59 дБ -14.18 дБ 7:18 01-Chimes Of Freedom
DR7 -5.17 дБ -14.33 дБ 4:18 02-I Don't Believe You
DR8 -6.48 дБ -15.72 дБ 9:56 03-It's Alright, Ma (I'm Only Bleeding)
--------------------------------------------------------------------------------

Количество треков: 3
Реальные значения DR: DR8

Частота: 44100 гц
Каналов: 2
Бит на сэмпл: 16
Битрейт: 684 кбит/с
Кодек: FLAC
================================================================================


01. Mr. Tambourine Man [00:07:00]
02. Talkin' World War III Blues [00:05:38]
03. A Hard Rain's A-Gonna Fall [00:07:44]
04. Don't Think Twice, It's All Right [00:04:22]
 
foobar2000 1.3.1 / Замер динамического диапазона (DR) 1.1.1
Дата отчёта: 2015-01-04 23:12:17

--------------------------------------------------------------------------------
Анализ: B. Dylan / 50th Anniversary Collection 1964 [LP 7 side N]
--------------------------------------------------------------------------------

DR Пики RMS Продолжительность трека
--------------------------------------------------------------------------------
DR8 -5.40 дБ -15.19 дБ 7:00 01-Mr. Tambourine Man
DR9 -5.24 дБ -16.28 дБ 5:38 02-Talkin' World War III Blues
DR9 -4.87 дБ -16.53 дБ 7:44 03-A Hard Rain's A-Gonna Fall
DR8 -6.02 дБ -16.56 дБ 4:22 04-Don't Think Twice, It's All Right
--------------------------------------------------------------------------------

Количество треков: 4
Реальные значения DR: DR8

Частота: 44100 гц
Каналов: 2
Бит на сэмпл: 16
Битрейт: 686 кбит/с
Кодек: FLAC
================================================================================


01. Only A Pawn In Their Game [00:04:53]
02. With God On Our Side [00:06:35]
03. It Ain't Me Babe [00:04:24]
04. The Lonesome Death Of Hattie Carroll [00:06:18]
05. All I Really Want To Do [00:03:21]
 
foobar2000 1.3.1 / Замер динамического диапазона (DR) 1.1.1
Дата отчёта: 2015-01-04 23:12:22

--------------------------------------------------------------------------------
Анализ: B. Dylan / 50th Anniversary Collection 1964 [LP 8 side O]
--------------------------------------------------------------------------------

DR Пики RMS Продолжительность трека
--------------------------------------------------------------------------------
DR8 -5.74 дБ -16.70 дБ 4:53 01-Only A Pawn In Their Game
DR9 -4.73 дБ -15.91 дБ 6:35 02-With God On Our Side
DR9 -4.65 дБ -16.30 дБ 4:25 03-It Ain't Me Babe
DR9 -6.82 дБ -17.52 дБ 6:19 04-The Lonesome Death Of Hattie Carroll
DR9 -5.34 дБ -17.48 дБ 3:22 05-All I Really Want To Do
--------------------------------------------------------------------------------

Количество треков: 5
Реальные значения DR: DR9

Частота: 44100 гц
Каналов: 2
Бит на сэмпл: 16
Битрейт: 679 кбит/с
Кодек: FLAC
================================================================================


01. Gates Of Eden [00:06:04]
02. If You Gotta Go, Go Now [00:02:53]
03. It's Alright, Ma (I'm Only Bleeding) [00:08:26]
04. Talkin' World War III Blues [00:05:28]
05. Don't Think Twice, It's All Right [00:04:02]
06. Mama, You Been On My Mind w. Joan Baez [00:02:18]
 
foobar2000 1.3.1 / Замер динамического диапазона (DR) 1.1.1
Дата отчёта: 2015-01-04 23:12:28

--------------------------------------------------------------------------------
Анализ: B. Dylan / 50th Anniversary Collection 1964 [LP 8 side P]
--------------------------------------------------------------------------------

DR Пики RMS Продолжительность трека
--------------------------------------------------------------------------------
DR14 -2.92 дБ -21.65 дБ 6:04 01-Gates Of Eden
DR12 -4.20 дБ -21.62 дБ 2:54 02-If You Gotta Go, Go Now
DR15 -4.94 дБ -25.81 дБ 8:26 03-It's Alright, Ma (I'm Only Bleeding)
DR14 -2.75 дБ -21.89 дБ 5:28 04-Talkin' World War III Blues
DR11 -3.50 дБ -21.76 дБ 4:03 05-Don't Think Twice, It's All Right
DR15 -4.84 дБ -24.54 дБ 2:18 06-Mama, You Been On My Mind w. Joan Baez
--------------------------------------------------------------------------------

Количество треков: 6
Реальные значения DR: DR14

Частота: 44100 гц
Каналов: 2
Бит на сэмпл: 16
Битрейт: 656 кбит/с
Кодек: FLAC
================================================================================


01. The Times They Are A-Changin' [00:03:16]
02. Talkin' John Birch Paranoid Blues [00:03:36]
03. To Ramona [00:04:19]
04. Gates Of Eden [00:07:33]
05. If You Gotta Go, Go Now [00:02:47]
 
foobar2000 1.3.1 / Замер динамического диапазона (DR) 1.1.1
Дата отчёта: 2015-01-04 23:12:32

--------------------------------------------------------------------------------
Анализ: B. Dylan / 50th Anniversary Collection 1964 [LP 9 side Q]
--------------------------------------------------------------------------------

DR Пики RMS Продолжительность трека
--------------------------------------------------------------------------------
DR10 -4.13 дБ -17.02 дБ 3:17 01-The Times They Are A-Changin'
DR9 -4.08 дБ -17.51 дБ 3:36 02-Talkin' John Birch Paranoid Blues
DR12 -3.30 дБ -20.21 дБ 4:20 03-To Ramona
DR12 -4.02 дБ -20.48 дБ 7:34 04-Gates Of Eden
DR11 -4.33 дБ -18.18 дБ 2:48 05-If You Gotta Go, Go Now
--------------------------------------------------------------------------------

Количество треков: 5
Реальные значения DR: DR11

Частота: 44100 гц
Каналов: 2
Бит на сэмпл: 16
Битрейт: 699 кбит/с
Кодек: FLAC
================================================================================


01. It's Alright, Ma (I'm Only Bleeding) [00:07:28]
02. Mr. Tambourine Man [00:06:02]
03. A Hard Rain's A-Gonna Fall [00:06:15]
04. Talkin' World War III Blues [00:04:43]
05. Don't Think Twice, It's All Right [00:04:24]
 
foobar2000 1.3.1 / Замер динамического диапазона (DR) 1.1.1
Дата отчёта: 2015-01-04 23:12:38

--------------------------------------------------------------------------------
Анализ: B. Dylan / 50th Anniversary Collection 1964 [LP 9 side R]
--------------------------------------------------------------------------------

DR Пики RMS Продолжительность трека
--------------------------------------------------------------------------------
DR15 -4.13 дБ -23.25 дБ 7:28 01-It's Alright, Ma (I'm Only Bleeding)
DR11 -4.44 дБ -19.95 дБ 6:02 02-Mr. Tambourine Man
DR13 -3.93 дБ -20.68 дБ 6:15 03-A Hard Rain's A-Gonna Fall
DR10 -7.68 дБ -20.44 дБ 4:43 04-Talkin' World War III Blues
DR10 -9.28 дБ -21.94 дБ 4:24 05-Don't Think Twice, It's All Right
--------------------------------------------------------------------------------

Количество треков: 5
Реальные значения DR: DR12

Частота: 44100 гц
Каналов: 2
Бит на сэмпл: 16
Битрейт: 673 кбит/с
Кодек: FLAC
================================================================================




info [Профиль]  [ЛС] 
Показать сообщения:    
Ответить на тему

Текущее время: 05-Дек 04:26

Часовой пояс: GMT + 4



Вы не можете начинать темы
Вы не можете отвечать на сообщения
Вы не можете редактировать свои сообщения
Вы не можете удалять свои сообщения
Вы не можете голосовать в опросах
Вы не можете прикреплять файлы к сообщениям
Вы не можете скачивать файлы