Ошибка

Семейка монстров / The Boxtrolls (Грэхэм Эннэйбл, Энтони Стакки) [2014, мультфильм, фэнтези, комедия, приключения, семейный, HDRip] Dub от R.G.TNClub

Ответить на тему
 
Автор Сообщение

R.G. TNClub

Стаж: 2 года 3 месяца

Сообщений: 515

Рейтинг

post 19-Дек-2014 22:40 6[+]

[Цитировать] 

Семейка монстров / The Boxtrolls
«Родственников не выбирают»

Страна: США
Жанр: мультфильм, фэнтези, комедия, приключения, семейный
Год выпуска: 2014
Продолжительность: 01:36:10
Перевод: Профессиональный (дублированный) [Лицензия iTunes]
Оригинальная дорожка: английская

Режиссер: Грэхэм Эннэйбл, Энтони Стакки
В ролях: Бен Кингсли / Ben Kingsley (Archibald Snatcher, озвучка), Джаред Харрис / Jared Harris (Lord Portley-Rind, озвучка), Ник Фрост / Nick Frost (Mr. Trout, озвучка), Ричард Айоади / Richard Ayoade (Mr. Pickles, озвучка), Трэйси Морган / Tracy Morgan (Mr. Gristle, озвучка), Ди Брэдли Бейкер / Dee Bradley Baker (Fish / Wheels / Bucket, озвучка), Стивен Блум / Steven Jay Blum (Shoe / Sparky, озвучка), Ника Футтерман / Nika Futterman (Oil Can / Knickers, озвучка)



Описание: Ему не повезло родиться в роскошном замке. Вместе с семейкой забавных монстров юноша поселился прямо под мостовой. Изысканные костюмы ему заменила обычная коробка. Зато каждую ночь он мог разгуливать по темным улицам в поисках новых приключений. Но однажды он встретил очаровательную девчушку из высшего общества — и мир вокруг изменился навсегда.

Качество видео: HDRip (энкод L)
Формат видео: AVI

Видео: 720x400 (16:9), 23.976 fps, XviD, 1 785 Kbps
Аудио: Russian : 48 kHz, AC3 Dolby Digital, 3/2 (L,C,R,l,r) + LFE ch, ~384 kbps

Раздача от &
the.boxtrolls.2014.1080p.bluray.x264-sparks

Код:

 
Общее
Полное имя                               : D:\L@TNClub\Semejka.monstrov.2014.HDRip.xvid.rus.RG.TNClub[by.L].avi
Формат                                   : AVI
Формат/Информация                        : Audio Video Interleave
Размер файла                             : 1,46 Гбайт
Продолжительность                        : 1 ч. 36 м.
Общий поток                              : 2178 Кбит/сек
Программа кодирования                    : VirtualDubMod 1.5.10.2 (build 2542/release)
Библиотека кодирования                   : VirtualDubMod build 2542/release

Видео
Идентификатор                            : 0
Формат                                   : MPEG-4 Visual
Профиль формата                          : Advanced Simple@L5
Параметр BVOP формата                    : 1
Параметр QPel формата                    : Нет
Параметр GMC формата                     : Без точки перехода
Параметр матрицы формата                 : Выборочная
Идентификатор кодека                     : XVID
Идентификатор кодека/Подсказка           : XviD
Продолжительность                        : 1 ч. 36 м.
Битрейт                                  : 1785 Кбит/сек
Ширина                                   : 720 пикселей
Высота                                   : 400 пикселей
Соотношение сторон                       : 16:9
Частота кадров                           : 23,976 кадра/сек
Цветовое пространство                    : YUV
Субдискретизация насыщенности            : 4:2:0
Битовая глубина                          : 8 бит
Тип развёртки                            : Прогрессивная
Метод сжатия                             : С потерями
Бит/(Пиксели*Кадры)                      : 0.259
Размер потока                            : 1,20 Гбайт (82%)
Библиотека кодирования                   : XviD 64

Аудио
Идентификатор                            : 1
Формат                                   : AC-3
Формат/Информация                        : Audio Coding 3
Расширение режима                        : CM (complete main)
Параметр Endianness формата              : Big
Идентификатор кодека                     : 2000
Продолжительность                        : 1 ч. 36 м.
Вид битрейта                             : Постоянный
Битрейт                                  : 384 Кбит/сек
Каналы                                   : 6 каналов
Расположение каналов                     : Front: L C R, Side: L R, LFE
Частота                                  : 48,0 КГц
Битовая глубина                          : 16 бит
Метод сжатия                             : С потерями
Размер потока                            : 264 Мбайт (18%)
Выравнивание                             : Разделение по промежуткам
Продолжительность промежутка             : 42  мс. (1,00 видеокадр)
Время предзагрузки промежутка            : 500  мс.
Информация о раздаче
При перезаливе указывайте, пож-та, автора рипов и R.G. TNClub, а также прикрепляйте лычку или баннер.
Пожалуйста, оставайтесь на раздаче как можно дольше!
Релиз специально для Tapochek.net
Все раздачи R.G.TNClub




Оформление by:GhostRidik
info [Профиль]  [ЛС] 

post 19-Дек-2014 22:41 (спустя 39 секунд) [-]0[+]

Топик был перенесен из форума Оформление раздач (R.G. TNClub) в форум Новинки 2013-2014 (Rips)

L
 

post 25-Апр-2015 18:01 (спустя 4 месяца 5 дней) [-]0[+]

Топик был перенесен из форума Новинки 2014-2015 (Rips) в форум Зарубежные полнометражные мультфильмы

L
 

post 25-Сен-2015 09:42 (спустя 9 месяцев 5 дней) [-]0[+]

Топик был перенесен из форума Зарубежные полнометражные мультфильмы в форум Мультфильмы от R.G. TNclub

L
 
Показать сообщения:    
Ответить на тему

Текущее время: 06-Дек 20:08

Часовой пояс: GMT + 4



Вы не можете начинать темы
Вы не можете отвечать на сообщения
Вы не можете редактировать свои сообщения
Вы не можете удалять свои сообщения
Вы не можете голосовать в опросах
Вы не можете прикреплять файлы к сообщениям
Вы не можете скачивать файлы