Ошибка

Махни крылом / Yellowbird (Кристиан Де Вита) [2014, мультфильм, семейный, DVDRip-AVC]

Ответить на тему
 
Автор Сообщение

BZzz

Пол: Пол:Муж

Стаж: 5 лет 1 месяц

Сообщений: 3647

Россия
Рейтинг

post 18-Дек-2014 17:21 0[+]

[Цитировать] 

Махни крылом / Yellowbird
«Bon voyage»




Год выпуска: 2014
Страна: Франция
Жанр: мультфильм, семейный
Продолжительность: 01:26:16
Перевод: Профессиональный (дублированный)[лицензия]

Режиссер: Кристиан Де Вита

В ролях: Сет Грин (Seth Green), Иветт Николь Браун (Yvette Nicole Brown), Джим Рэш (Jim Rash), Дакота Фаннинг (Dakota Fanning), Кристин Барански (Christine Baranski), Натали Бутфо (Nathalie Boutefeu), Брэйди Корбет (Brady Corbet), Артур Дюпон (Arthur Dupont)

Описание: Каждый год, все птицы улетают на юг. Должна улететь и стая нашего юного героя Чижика, но в последний момент перед перелетом на вожака стаи Дариуса нападает злой кот. Только Дариус знает дорогу на юг, и он успевает передать секрет Чижику, который теперь должен стать вожаком стаи. У Чижика нет опыта таких дальних перелетов, и тем более, опыта лидерства в стае, но ему не остается ничего, кроме как быстро учиться.

Сборы в России: $1 356 312
Рейтинг MPAA:



Качество: DVDRip-AVC
Формат: MKV
Видео кодек: AVC
Аудио кодек: AC3
Видео: 1024x576@720x576 (16:9), 25.000 fps, High@L4.1, 1 971 Kbps
Аудио #1: AC3, 448 Kbps, 48.0 KHz, 6 ch
x264 [info]: frame I:1253 Avg QP:12.93 size: 75350
x264 [info]: frame P:37945 Avg QP:17.57 size: 20323
x264 [info]: frame B:90212 Avg QP:22.47 size: 4541
x264 [info]: consecutive B-frames: 4.2% 7.9% 30.1% 28.3% 8.0% 19.3% 1.1% 0.4% 0.3% 0.1% 0.0% 0.1% 0.0% 0.1% 0.3%
General
Complete name : Yellowbird.2014.DVDRip-AVC.mkv
Format : Matroska
File size : 1.46 GiB
Duration : 1h 26mn
Overall bit rate : 2 421 Kbps
Encoded date : UTC 2010-02-22 21:41:31
Writing application : mkvmerge v5.8.0 ('No Sleep / Pillow') built on Nov 13 2012 19:43:22
Writing library : libebml v1.3.0 + libmatroska v1.4.0

Video
ID : 1
Format : AVC
Format/Info : Advanced Video Codec
Format profile : High@L4.1
Format settings, CABAC : Yes
Format settings, ReFrames : 10 frames
Muxing mode : Container profile=Unknown@4.1
Codec ID : V_MPEG4/ISO/AVC
Duration : 1h 26mn
Bit rate : 1 971 Kbps
Width : 720 pixels
Height : 576 pixels
Display aspect ratio : 16:9
Frame rate : 25.000 fps
Standard : PAL
Color space : YUV
Chroma subsampling : 4:2:0
Bit depth : 8 bits
Scan type : Progressive
Bits/(Pixel*Frame) : 0.190
Stream size : 1.16 GiB (80%)
Writing library : x264 core 142 r2431+42 c69a006 tMod [8-bit@4:2:0 X86_64]
Encoding settings : cabac=1 / ref=10 / deblock=1:-3:-3 / analyse=0x3:0x113 / me=umh / subme=10 / psy=1 / fade_compensate=0.00 / psy_rd=1.00:0.20 / mixed_ref=1 / me_range=32 / chroma_me=1 / trellis=2 / 8x8dct=1 / cqm=0 / deadzone=21,11 / fast_pskip=0 / chroma_qp_offset=-3 / threads=12 / lookahead_threads=3 / sliced_threads=0 / nr=0 / decimate=0 / interlaced=0 / bluray_compat=0 / constrained_intra=0 / fgo=0 / bframes=14 / b_pyramid=2 / b_adapt=2 / b_bias=0 / direct=3 / weightb=1 / open_gop=0 / weightp=2 / keyint=250 / keyint_min=25 / scenecut=40 / intra_refresh=0 / rc_lookahead=40 / rc=2pass / mbtree=1 / bitrate=1971 / ratetol=1.0 / qcomp=0.60 / qpmin=0:0:0 / qpmax=69:69:69 / qpstep=4 / cplxblur=20.0 / qblur=0.5 / ip_ratio=1.40 / aq=4:0.80 / aq-sensitivity=10.00 / aq-factor=1.00:1.00:1.00 / aq2=0 / aq3=0

Audio
ID : 2
Format : AC-3
Format/Info : Audio Coding 3
Mode extension : CM (complete main)
Codec ID : A_AC3
Duration : 1h 26mn
Bit rate mode : Constant
Bit rate : 448 Kbps
Channel(s) : 6 channels
Channel positions : Front: L C R, Side: L R, LFE
Sampling rate : 48.0 KHz
Bit depth : 16 bits
Stream size : 276 MiB (19%)
Language : Russian

Menu
00:00:00.000 : en:Chapter 01
00:10:12.800 : en:Chapter 02
00:19:47.320 : en:Chapter 03
00:29:48.280 : en:Chapter 04
00:39:05.680 : en:Chapter 05
00:49:12.080 : en:Chapter 06
01:00:09.480 : en:Chapter 07
01:13:00.800 : en:Chapter 08
info [Профиль]  [ЛС] 

andikirov

Пол: Пол:Муж

Стаж: 2 года 5 месяцев

Сообщений: 128

Россия
Рейтинг

post 18-Дек-2014 18:50 (спустя 1 час 29 минут) [-]0[+]

[Цитировать] 

рейтинг для мультика радует!
info [Профиль]  [ЛС] 

post 20-Июл-2015 00:34 (спустя 7 месяцев 1 день) [-]0[+]

Топик был перенесен из форума Новинки 2014-2015 (Rips) в форум Зарубежное кино | Rips

koss555
 

post 20-Июл-2015 00:47 (спустя 7 месяцев 1 день) [-]0[+]

Топик был перенесен из форума Зарубежное кино | Rips в форум Зарубежные полнометражные мультфильмы

BZzz
 
Показать сообщения:    
Ответить на тему

Текущее время: 08-Дек 10:01

Часовой пояс: GMT + 4



Вы не можете начинать темы
Вы не можете отвечать на сообщения
Вы не можете редактировать свои сообщения
Вы не можете удалять свои сообщения
Вы не можете голосовать в опросах
Вы не можете прикреплять файлы к сообщениям
Вы не можете скачивать файлы