Ошибка

Махни крылом / Yellowbird (Кристиан Де Вита) [2014, мультфильм, семейный, DVDRip]

Ответить на тему
 
Автор Сообщение

BZzz

Пол: Пол:Муж

Стаж: 5 лет 1 месяц

Сообщений: 3647

Россия
Рейтинг

post 17-Дек-2014 22:44 1[+]

[Цитировать] 

Махни крылом / Yellowbird
«Bon voyage»




Год выпуска: 2014
Страна: Франция
Жанр: мультфильм, семейный
Продолжительность: 01:26:16
Перевод: Профессиональный (дублированный)[лицензия]

Режиссер: Кристиан Де Вита

В ролях: Сет Грин (Seth Green), Иветт Николь Браун (Yvette Nicole Brown), Джим Рэш (Jim Rash), Дакота Фаннинг (Dakota Fanning), Кристин Барански (Christine Baranski), Натали Бутфо (Nathalie Boutefeu), Брэйди Корбет (Brady Corbet), Артур Дюпон (Arthur Dupont)

Описание: Каждый год, все птицы улетают на юг. Должна улететь и стая нашего юного героя Чижика, но в последний момент перед перелетом на вожака стаи Дариуса нападает злой кот. Только Дариус знает дорогу на юг, и он успевает передать секрет Чижику, который теперь должен стать вожаком стаи. У Чижика нет опыта таких дальних перелетов, и тем более, опыта лидерства в стае, но ему не остается ничего, кроме как быстро учиться.

Сборы в России: $1 356 312
Рейтинг MPAA:



Качество: DVDRip
Формат: AVI
Видео кодек: XviD
Аудио кодек: AC3
Видео: 720x400 (16:9), 25.000 fps, XviD, 1 966 Kbps
Аудио #1: AC3, 448 Kbps, 48.0 KHz, 6 ch
Format : AVI
Format/Info : Audio Video Interleave
File size : 1.46 GiB
Duration : 1h 26mn
Overall bit rate : 2 424 Kbps
Writing application : VirtualDubMod 1.5.10.2 (build 2540/release)
Writing library : VirtualDubMod build 2540/release

Video
ID : 0
Format : MPEG-4 Visual
Format profile : Advanced Simple@L5
Format settings, BVOP : 2
Format settings, QPel : No
Format settings, GMC : No warppoints
Format settings, Matrix : Default (MPEG)
Codec ID : XVID
Codec ID/Hint : XviD
Duration : 1h 26mn
Bit rate : 1 966 Kbps
Width : 720 pixels
Height : 400 pixels
Display aspect ratio : 16:9
Frame rate : 25.000 fps
Color space : YUV
Chroma subsampling : 4:2:0
Bit depth : 8 bits
Scan type : Progressive
Compression mode : Lossy
Bits/(Pixel*Frame) : 0.273
Stream size : 1.18 GiB (81%)
Writing library : XviD 1.2.1 (UTC 2008-12-04)

Audio
ID : 1
Format : AC-3
Format/Info : Audio Coding 3
Mode extension : CM (complete main)
Format settings, Endianness : Big
Codec ID : 2000
Duration : 1h 26mn
Bit rate mode : Constant
Bit rate : 448 Kbps
Channel(s) : 6 channels
Channel positions : Front: L C R, Side: L R, LFE
Sampling rate : 48.0 KHz
Bit depth : 16 bits
Compression mode : Lossy
Stream size : 276 MiB (18%)
Alignment : Split accross interleaves
Interleave, duration : 40 ms (1.00 video frame)
Interleave, preload duration : 500 ms
info [Профиль]  [ЛС] 

Sturmvogel539

Пол: Пол:Муж

Стаж: 6 лет 7 месяцев

Сообщений: 21

Россия
Рейтинг

post 18-Дек-2014 01:10 (спустя 2 часа 26 минут) [-]5[+]

[Цитировать] 

Локализаторы как всегда
info [Профиль]  [ЛС] 

topsex

Пол: Пол:Муж

Стаж: 6 лет 8 месяцев

Сообщений: 411

СССР
Рейтинг

post 21-Дек-2014 00:36 (спустя 2 дня 23 часа) [-]1[+]

[Цитировать] 

А ведь могли бы как всегда в своем репертуаре назвать "Крылатая братва".

_________________
i5@4.0Ghz, 8Gb RAM, Radeon R9 280x 3Gb, SSD, W8.1 x64 \ Xbox 360
info [Профиль]  [ЛС] 

post 05-Фев-2016 01:10 (спустя 1 год 1 месяц) [-]0[+]

Топик был перенесен из форума Новинки 2014-2015 (Rips) в форум Зарубежные полнометражные мультфильмы

LyaKich
 
Показать сообщения:    
Ответить на тему

Текущее время: 05-Дек 18:36

Часовой пояс: GMT + 4



Вы не можете начинать темы
Вы не можете отвечать на сообщения
Вы не можете редактировать свои сообщения
Вы не можете удалять свои сообщения
Вы не можете голосовать в опросах
Вы не можете прикреплять файлы к сообщениям
Вы не можете скачивать файлы