Ошибка

Сад изящных слов / Kotonoha no Niwa / The Garden of Words [Movie] [2014] [драма, романтика] [BDrip] [720p] [Профессиональный(JAP+SUB)]

Ответить на тему
 
Автор Сообщение

L

Пол: Пол:Муж

Стаж: 6 лет 8 месяцев

Сообщений: 10838

Украина
Рейтинг

post 30-Ноя-2014 14:10 3[+]

[Цитировать] 

Страна: Япония
Год выпуска: 2013 г.
Жанр: драма, романтика
Тип: Movie
Продолжительность: 46 мин.
Режиссер: Синкай Макото
Студия: CoMix Wave Inc.
Озвучка: полное дублирование от Reanimedia
Субтитры: русские субтитры от Reanimedia [srt]
Описание: 15-летний Такао Акидзуки словно бы родился слишком поздно – он не любит токийскую суету, не особо ценит блага цивилизации, а на жизнь мечтает зарабатывать, став обувным мастером. Старшую школу Акидзуки тоже считает бессмысленной, потому не упускает случая пропустить уроки дождливым утром – ведь в парке в это время безлюдно, и можно спокойно насладиться природой, воплощая на бумаге дизайнерские идеи. Вот только в начале сезона дождей в любимой беседке Такао встречает незнакомую молодую женщину, которая при расставании прочла ему старинную танка…
Конечно же, потом они встретились вновь… и вновь, начали общаться, потому что самой природой люди созданы говорить друг с другом. Собственно, много слов героям и не понадобилось – ведь вокруг, в тиши чудесного сада, речь за них вели капли дождя, шум ветра, блеск молнии в разрывах туч и стихи, написанные за тысячу лет до нашего времени. Такао и Юкино (так ее звали) оказались на важном переломе своей жизни - а значит, встреча была не случайна, и посиделки под дождем дали каждому то, чего он на самом деле желал. А хотите узнать, чем все кончилось – смотрите фильм!
© Hollow, World Art
Качество: BDRip
Автор рипа: CtrlHD
Тип релиза: Без хардсаба
Формат видео: MKV
Наличие линковки: Нет
Видео: AVC, 8bit, 1280x720, 5056 kbps, 23,976 fps
Аудио RUS (int.): AC3, 448 kbps, 48000 Hz, 6 ch
Аудио JAP: AC3, 640 kbps, 48000 Hz, 6 ch
Сэмпл
Формат : Matroska
Версия формата : Version 2
Размер файла : 2,01 Гбайт
Продолжительность : 45 м.
Общий поток : 6269 Кбит/сек
Дата кодирования : UTC 2014-10-27 11:30:43
Программа кодирования : mkvmerge v5.8.0 ('No Sleep / Pillow') built on Sep 2 2012 15:37:04
Библиотека кодирования : libebml v1.2.3 + libmatroska v1.3.0

Видео
Идентификатор : 1
Формат : AVC
Формат/Информация : Advanced Video Codec
Профиль формата : High@L4.1
Параметр CABAC формата : Да
Параметр ReFrames формата : 9 кадров
Идентификатор кодека : V_MPEG4/ISO/AVC
Продолжительность : 45 м.
Битрейт : 5056 Кбит/сек
Ширина : 1280 пикселей
Высота : 720 пикселей
Соотношение сторон : 16:9
Режим частоты кадров : Постоянный
Частота кадров : 23,976 кадра/сек
Цветовое пространство : YUV
Субдискретизация насыщенности : 4:2:0
Битовая глубина : 8 бит
Тип развёртки : Прогрессивная
Бит/(Пиксели*Кадры) : 0.229
Размер потока : 1,62 Гбайт (81%)
Заголовок : Garden of Words
Библиотека кодирования : x264 core 133 r2334kMod a3ac64b
Настройки программы : cabac=1 / ref=9 / deblock=1:-3:-3 / analyse=0x3:0x113 / me=umh / subme=10 / psy=1 / fade_compensate=0.00 / psy_rd=1.10:0.00 / mixed_ref=1 / me_range=32 / chroma_me=1 / trellis=2 / 8x8dct=1 / cqm=0 / deadzone=21,11 / fast_pskip=0 / chroma_qp_offset=-2 / threads=6 / lookahead_threads=1 / sliced_threads=0 / nr=0 / decimate=0 / interlaced=0 / bluray_compat=0 / constrained_intra=0 / bframes=10 / b_pyramid=2 / b_adapt=2 / b_bias=0 / direct=3 / weightb=1 / open_gop=0 / weightp=2 / keyint=250 / keyint_min=23 / scenecut=40 / intra_refresh=0 / rc_lookahead=60 / rc=crf / mbtree=0 / crf=17.0000 / qcomp=0.80 / qpmin=0 / qpmax=30 / qpstep=4 / vbv_maxrate=20000 / vbv_bufsize=15000 / crf_max=0.0 / nal_hrd=none / ip_ratio=1.20 / pb_ratio=1.10 / aq=1:1.20
Язык : Japanese
Default : Да
Forced : Нет

Аудио #1
Идентификатор : 2
Формат : AC-3
Формат/Информация : Audio Coding 3
Расширение режима : CM (complete main)
Параметр Endianness формата : Big
Идентификатор кодека : A_AC3
Продолжительность : 45 м.
Вид битрейта : Постоянный
Битрейт : 448 Кбит/сек
Каналы : 6 каналов
Расположение каналов : Front: L C R, Side: L R, LFE
Частота : 48,0 КГц
Битовая глубина : 16 бит
Метод сжатия : С потерями
Размер потока : 147 Мбайт (7%)
Заголовок : Реанимедия
Язык : Russian
Default : Да
Forced : Нет

Аудио #2
Идентификатор : 3
Формат : AC-3
Формат/Информация : Audio Coding 3
Расширение режима : CM (complete main)
Параметр Endianness формата : Big
Идентификатор кодека : A_AC3
Продолжительность : 45 м.
Вид битрейта : Постоянный
Битрейт : 640 Кбит/сек
Каналы : 6 каналов
Расположение каналов : Front: L C R, Side: L R, LFE
Частота : 48,0 КГц
Битовая глубина : 16 бит
Метод сжатия : С потерями
Размер потока : 210 Мбайт (10%)
Язык : Japanese
Default : Нет
Forced : Нет

Меню
00:00:00.000 : :Chapter 1
00:05:01.688 : :Chapter 2
00:07:30.253 : :Chapter 3
00:12:56.204 : :Chapter 4
00:18:15.648 : :Chapter 5
00:20:54.098 : :Chapter 6
00:25:05.766 : :Chapter 7
00:29:07.758 : :Chapter 8
00:36:52.889 : :Chapter 9
00:44:49.741 : :Chapter 10
info [Профиль]  [ЛС] 

Алмаз

Пол: Пол:Муж

Стаж: 6 лет 4 месяца

Сообщений: 1836

Россия
Рейтинг

post 01-Дек-2014 00:01 (спустя 9 часов) [-]1[+]

[Цитировать] 

Но вообще - постер больше разрешённого.

_________________
Паранойя - чрезвычайно утешительное состояние ума. Если вам кажется, что против вас что-то замышляют - значит вы что-то да стоите! (с) Гильбран Трус (Митчелл Сэнди - Игра предателя)
info [Профиль]  [ЛС] 

Alexkun

Пол: Пол:Муж

Стаж: 4 года 9 месяцев

Сообщений: 23

Никарагуа
Рейтинг

post 01-Дек-2014 00:27 (спустя 25 минут) [-]8[+]

[Цитировать] 

Невероятная вещь. Всем советую потратить один час своего времени.

_________________
'
info [Профиль]  [ЛС] 

X7X7X7X7

Пол: Пол:Муж

Стаж: 6 лет 11 месяцев

Сообщений: 444

Чехия
Рейтинг

post 01-Дек-2014 20:24 (спустя 19 часов) [-]1[+]

[Цитировать] 

Первый скриншот что-то напомнил:
kolob_143
Но это я так, Синкай же, тут плохого графона нет и быть не может.
info [Профиль]  [ЛС] 
Показать сообщения:    
Ответить на тему

Текущее время: 09-Дек 21:27

Часовой пояс: GMT + 4



Вы не можете начинать темы
Вы не можете отвечать на сообщения
Вы не можете редактировать свои сообщения
Вы не можете удалять свои сообщения
Вы не можете голосовать в опросах
Вы не можете прикреплять файлы к сообщениям
Вы не можете скачивать файлы