Ошибка

До окончания фрилича осталось:


Черепашки-ниндзя / Teenage Mutant Ninja Turtles (Джонатан Либесман) [2014, фантастика, фэнтези, боевик, комедия, приключения, BDRip 1080p, 3D] [Горизонтальная анаморфная стереопара]

Ответить на тему
 
Автор Сообщение

BZzz

Пол: Пол:Муж

Стаж: 5 лет 1 месяц

Сообщений: 3647

Россия
Рейтинг

post 26-Ноя-2014 17:00 1[+]

[Цитировать] 

Teenage Mutant Ninja Turtles
«The leader. The brains. The attitude. And Mikey»




Год выпуска: 2014
Страна: США
Жанр: фантастика, фэнтези, боевик, комедия, приключения
Продолжительность: 01:41:30
Перевод: Профессиональный (дублированный)[цифровая лицензия iTunes]
Субтитры: русские и английские (форсированные)

Режиссер: Джонатан Либесман

В ролях: Меган Фокс (Megan Fox), Уилл Арнетт (Will Arnett), Уильям Фихтнер (William Fichtner), Алан Ричсон (Alan Ritchson), Ноэль Фишер (Noel Fisher), Пит Пложек (Pete Ploszek), Джонни Ноксвил (Johnny Knoxville), Джереми Ховард (Jeremy Howard)

Описание: Город нуждается в героях. Тьма окутала Нью-Йорк в виде Шреддера и его зловещего Клана Футов, у которого имеется железный контроль над всеми, от полицейских до политиков. Будущее выглядит мрачным, пока из канализации не поднимается и не раскрывает своё предназначение четвёрка отверженных братьев — Черепашки-ниндзя. Черепашки должны работать вместе с бесстрашным репортёром Эйприл и её саркастическим оператором Верном Фенвиком, чтобы спасти город и разгадать дьявольский план Шреддера.

Бюджет: $125 000 000
Сборы в США: $190 161 851
Сборы в мире: + $201 900 000 = $392 061 851
Сборы в России: $29 067 226
Рейтинг MPAA:



Качество: BDRip 1080p 3D
Формат: MKV
Видео кодек: AVC
Аудио кодек: AC3
Видео: 1920x1080 (16:9), 23.976 fps, High@L4.1, 14.5 Mbps
Аудио #1: Rus AC3, 384 Kbps, 48.0 KHz, 6 ch
Аудио #2: Eng DTS, 1 510 Kbps, 48.0 KHz, 6 ch
· Персонаж Бернадетт Томпсон (босс Эйприл) основан на Бёрне Томпсоне, боссе Эйприл из оригинального сериала «Черепашки-мутанты ниндзя» (1987-1996).

· Это первый фильм о черепашках-ниндзя, выпущенный в 3D.

· Создатели фильма отметили, что в процессе работы над проектом их источниками вдохновения для экшн-сцен были такие фильмы, как «Кулак легенды» (1994) и «Рейд» (2011).

· В фильме Майкла Бэя «Армагеддон» (1998) в эпизодической роли снималась Джудит Хоаг (сыгравшая Эйприл О`Нил в фильме «Черепашки-ниндзя», 1990). В фильме Бэя «Перл-Харбор» (2001) снимались Джеймс Саито (сыгравший роль Шредера в фильме «Черепашки-ниндзя», 1990) и Мако (Сплинтер из фильма «Черепашки-ниндзя», 2007).

· На роль Сплинтера был взят актер Дэнни Вудберн, чей рост составляет 122 сантиметра, что соответствует оригинальным комиксам. Вудберн очень расстроился, когда узнал, что он будет только исполнять движения Сплинтера, которые затем будут перенесены в фильм при помощи технологии захвата движения. Голосом же Сплинтера стал Тони Шэлуб.

· Джеймс Саито (первый, кто сыграл Шредера в художественном фильме) и Уильям Фихтнер (ученик Шредера в этом фильме) снимались в фильме Майкла Бэя «Перл-Харбор» (2001).

· Кастинг на роли в клан «Фут» был проведен, когда празднование 25-летия «Черепашек-ниндзя» проходило в Лос-Анджелесе. Роли достались обычным людям с улицы.

· Бретт Рэтнер рассматривался на должность режиссера проекта.

· Джейн Леви, Анна Кендрик и Элизабет Олсен проходили прослушивание на роль Эйприл О`Нил.

· Фильм вышел к 30-летию франшизы «Черепашки-ниндзя».

· Изначально название фильма было Ninja Turtles. Teenage Mutant добавили, чтобы порадовать фанатов, когда они стали негативно отзываться о первоначальной версии названия.

· Эйприл О’Нилл носит желтую куртку в фильме. Это отсылка к оригинальному сериалу «Черепашки-мутанты ниндзя» (1987-1996), где у Эйприл был желтый комбинезон.

· Во время съемок, чтобы скрыть настоящее название, фильму присвоили рабочее название Foursquare («Квадрат»).

· Изначально создатели хотели, чтобы у Микеланджело на шее была золотая цепь, но эту идею раскритиковали как стереотипную отсылку к чернокожим людям. В итоге вместо золотой цепи появилось ожерелье из морских ракушек, чтобы подчеркнуть любовь Микеланджело к серфингу и скейтбордингу.

· Сценарист Кевин Истмэн, один из создателей черепашек-ниндзя, снялся в эпизодической роли доктора.

· Из всех актеров, которые озвучивали мультсериалы о черепашках-ниндзя в 1990-х, Робби Рист (Микеланджело) был единственным, кто обвинил Майкла Бэя в том, что он изнасиловал сагу о черепашках-ниндзя их инопланетным происхождением. Брайан Точи (озвучивал Леонардо), Кори Фельдман (Донателло) и Джудит Хоаг (Эйприл О`Нил) одобрили развитие сюжета в этом направлении. Позже Рист взял свои слова назад.

· В оригинальном сценарии присутствовали мутанты-головорезы Бибоп и Рокстеди. Но в итоге было решено, что эти персонажи появятся в сиквеле.
Format : Matroska
Format version : Version 4 / Version 2
File size : 11.8 GiB
Duration : 1h 41mn
Overall bit rate : 16.7 Mbps
Encoded date : UTC 2010-02-22 21:41:31
Writing application : mkvmerge v5.8.0 ('No Sleep / Pillow') built on Nov 13 2012 19:43:22
Writing library : libebml v1.3.0 + libmatroska v1.4.0

Video
ID : 1
Format : AVC
Format/Info : Advanced Video Codec
Format profile : High@L4.1
Format settings, CABAC : Yes
Format settings, ReFrames : 4 frames
Codec ID : V_MPEG4/ISO/AVC
Duration : 1h 41mn
Bit rate : 14.5 Mbps
Width : 1 920 pixels
Height : 1 080 pixels
Display aspect ratio : 16:9
Frame rate mode : Constant
Frame rate : 23.976 fps
Color space : YUV
Chroma subsampling : 4:2:0
Bit depth : 8 bits
Scan type : Progressive
Bits/(Pixel*Frame) : 0.291
Stream size : 10.2 GiB (87%)
Writing library : x264 core 133 r2334kMod a3ac64b
Encoding settings : cabac=1 / ref=4 / deblock=1:-3:-3 / analyse=0x3:0x133 / me=umh / subme=11 / psy=1 / fade_compensate=0.00 / psy_rd=1.00:0.00 / mixed_ref=1 / me_range=24 / chroma_me=1 / trellis=2 / 8x8dct=1 / cqm=0 / deadzone=21,11 / fast_pskip=0 / chroma_qp_offset=-2 / threads=24 / lookahead_threads=4 / sliced_threads=0 / nr=0 / decimate=0 / interlaced=0 / bluray_compat=0 / constrained_intra=0 / bframes=9 / b_pyramid=2 / b_adapt=2 / b_bias=0 / direct=3 / weightb=1 / open_gop=0 / weightp=2 / keyint=250 / keyint_min=23 / scenecut=40 / intra_refresh=0 / rc=crf / mbtree=0 / crf=18.8000 / qcomp=0.75 / qpmin=0 / qpmax=69 / qpstep=4 / frame-packing=3 / ip_ratio=1.25 / pb_ratio=1.15 / aq=1:0.95
Language : English
Default : Yes
Forced : No

Audio #1
ID : 2
Format : AC-3
Format/Info : Audio Coding 3
Mode extension : CM (complete main)
Format settings, Endianness : Big
Codec ID : A_AC3
Duration : 1h 41mn
Bit rate mode : Constant
Bit rate : 384 Kbps
Channel(s) : 6 channels
Channel positions : Front: L C R, Side: L R, LFE
Sampling rate : 48.0 KHz
Bit depth : 16 bits
Compression mode : Lossy
Stream size : 278 MiB (2%)
Language : Russian
Default : Yes
Forced : No

Audio #2
ID : 3
Format : DTS
Format/Info : Digital Theater Systems
Mode : 16
Format settings, Endianness : Big
Codec ID : A_DTS
Duration : 1h 41mn
Bit rate mode : Constant
Bit rate : 1 510 Kbps
Channel(s) : 6 channels
Channel positions : Front: L C R, Side: L R, LFE
Sampling rate : 48.0 KHz
Bit depth : 24 bits
Compression mode : Lossy
Stream size : 1.07 GiB (9%)
Language : English
Default : No
Forced : No

Text #1
ID : 4
Format : UTF-8
Codec ID : S_TEXT/UTF8
Codec ID/Info : UTF-8 Plain Text
Title : Forced
Language : Russian
Default : Yes
Forced : No

Text #2
ID : 5
Format : PGS
Muxing mode : zlib
Codec ID : S_HDMV/PGS
Codec ID/Info : The same subtitle format used on BDs/HD-DVDs
Title : 3D Forced
Language : English
Default : No
Forced : No

Menu
00:00:00.000 : en:00:00:00.000
00:02:42.287 : en:00:02:42.287
00:06:00.485 : en:00:06:00.485
00:11:51.544 : en:00:11:51.544
00:16:01.836 : en:00:16:01.836
00:22:02.947 : en:00:22:02.947
00:28:22.784 : en:00:28:22.784
00:34:01.831 : en:00:34:01.831
00:38:04.032 : en:00:38:04.032
00:42:10.111 : en:00:42:10.111
00:48:36.413 : en:00:48:36.413
00:55:46.093 : en:00:55:46.093
01:00:44.266 : en:01:00:44.266
01:07:46.604 : en:01:07:46.604
01:15:30.359 : en:01:15:30.359
01:24:10.796 : en:01:24:10.796
01:30:17.037 : en:01:30:17.037
01:34:13.565 : en:01:34:13.565
info [Профиль]  [ЛС] 

Stahlhai

Пол: Пол:Муж

Стаж: 3 года 8 месяцев

Сообщений: 4

США
Рейтинг

post 26-Ноя-2014 17:38 (спустя 38 минут) [-]0[+]

[Цитировать] 

Русские сабы отдельно не знаете где скачать?
info [Профиль]  [ЛС] 

scandall

Пол: Пол:Муж

Стаж: 7 лет 2 месяца

Сообщений: 3001

Предупреждений: 4

Россия
Рейтинг

post 26-Ноя-2014 17:55 (спустя 16 минут) [-]0[+]

[Цитировать] 

1080 обычный будет, дядьки ?

_________________
Где твои симптомы ?
info [Профиль]  [ЛС] 

Lipych

Пол: Пол:Муж

Стаж: 4 года 1 месяц

Сообщений: 48

Россия
Рейтинг

post 26-Ноя-2014 18:04 (спустя 8 минут) [-]3[+]

[Цитировать] 

А без полос, кто нибудь возьмется сделать?
info [Профиль]  [ЛС] 

naJLa4

Пол: Пол:Муж

Стаж: 5 лет 5 месяцев

Сообщений: 33

Россия
Рейтинг

post 26-Ноя-2014 23:02 (спустя 4 часа) [-]0[+]

[Цитировать] 

3D смотрибельно ?????

_________________
info [Профиль]  [ЛС] 

MrScrotum

Пол: Пол:Муж

Стаж: 1 год 10 месяцев

Сообщений: 5

Россия
Рейтинг

post 13-Фев-2015 21:09 (спустя 2 месяца 16 дней) [-]0[+]

[Цитировать] 

А-ха))) Посмотрел когда, даже как-то далёкой юностью навеяло)))
info [Профиль]  [ЛС] 

post 13-Май-2015 13:52 (спустя 2 месяца 27 дней) [-]0[+]

Топик был перенесен из форума Новинки (3D) в форум 3D

BZzz
 
Показать сообщения:    
Ответить на тему

Текущее время: 10-Дек 16:52

Часовой пояс: GMT + 4



Вы не можете начинать темы
Вы не можете отвечать на сообщения
Вы не можете редактировать свои сообщения
Вы не можете удалять свои сообщения
Вы не можете голосовать в опросах
Вы не можете прикреплять файлы к сообщениям
Вы не можете скачивать файлы