Ошибка

Самолеты: Огонь и вода / Planes: Fire and Rescue (Роберт Ганнавей) [2014, мультфильм, комедия, приключения, семейный, BDRip] Dub + Eng + Sub rus, eng от R.G. TNClub

Ответить на тему
 
Автор Сообщение

R.G. TNClub

Стаж: 2 года 3 месяца

Сообщений: 515

Рейтинг

post 12-Ноя-2014 17:24 1[+]

[Цитировать] 

Самолеты: Огонь и вода / Planes: Fire and Rescue

Страна: США
Жанр: мультфильм, комедия, приключения, семейный
Год выпуска: 2014
Продолжительность: 01:23:37
Перевод: Профессиональный (дублированный) [Лицензия]
Субтитры: русские, английские (отдельно)
Оригинальная дорожка: английская (отдельно)

Режиссер: Роберт Ганнавей
Дейн Кук / Dane Cook (Dusty Crophopper, озвучка), Эд Харрис / Ed Harris (Blade Ranger, озвучка), Джули Боуэн / Julie Bowen (Lil' Dipper, озвучка), Кертис Армстронг / Curtis Armstrong (Maru, озвучка), Джон Майкл Хиггинс / John Michael Higgins (Cad, озвучка), Хэл Холбрук / Hal Holbrook (Mayday, озвучка), Уэс Стьюди / Wes Studi (Windlifter, озвучка), Брэд Гэррет / Brad Garrett (Chug, озвучка)

Описание: Самолетик Дасти, который стал уже легендой воздушных гонок, вскоре узнает, что его двигатель сильно повреждён, и он никогда не может больше участвовать в скоростных воздушных гонках. Дасти ищет себе новое занятие и знакомится с мужественной пожарно-спасательной командой, которой руководит ветеран авиации вертолёт по имени Ренждер. Узнав, насколько тяжела и опасна работа пожарной авиации, Дасти поймёт, что такое настоящий героизм и самоотдача, и сам захочет стать спасателем.


Качество видео: BDRip (энкод BZzz)
Формат видео: AVI

Видео: 720x304 (2.35:1), 23.976 fps, XviD, 1 888 Kbps
Аудио №1: Russian: 48 kHz, AC3 Dolby Digital, 3/2 (L,C,R,l,r) + LFE ch, ~448 kbps
Аудио №2: English: 48 kHz, AC3 Dolby Digital, 3/2 (L,C,R,l,r) + LFE ch, ~448 kbps (отдельно)

Раздача от &
BDRemux 1080p

Код:

General
Complete name                    : Samolety.2.2014.BDRip.xvid.ac3.rus.RG.TNClub.[by.BZzz].avi
Format                           : AVI
Format/Info                      : Audio Video Interleave
File size                        : 1.37 GiB
Duration                         : 1h 23mn
Overall bit rate                 : 2 345 Kbps
Writing application              : VirtualDubMod 1.5.10.3 (build 2550/release)
Writing library                  : VirtualDubMod build 2550/release

Video
ID                               : 0
Format                           : MPEG-4 Visual
Format profile                   : Advanced Simple@L5
Format settings, BVOP            : Yes
Format settings, QPel            : No
Format settings, GMC             : No warppoints
Format settings, Matrix          : Custom
Codec ID                         : XVID
Codec ID/Hint                    : XviD
Duration                         : 1h 23mn
Bit rate                         : 1 888 Kbps
Width                            : 720 pixels
Height                           : 304 pixels
Display aspect ratio             : 2.35:1
Frame rate                       : 23.976 fps
Color space                      : YUV
Chroma subsampling               : 4:2:0
Bit depth                        : 8 bits
Scan type                        : Progressive
Bits/(Pixel*Frame)               : 0.360
Stream size                      : 1.10 GiB (80%)
Writing library                  : XviD 65

Audio
ID                               : 1
Format                           : AC-3
Format/Info                      : Audio Coding 3
Mode extension                   : CM (complete main)
Codec ID                         : 2000
Duration                         : 1h 23mn
Bit rate mode                    : Constant
Bit rate                         : 448 Kbps
Channel(s)                       : 6 channels
Channel positions                : Front: L C R, Side: L R, LFE
Sampling rate                    : 48.0 KHz
Bit depth                        : 16 bits
Stream size                      : 268 MiB (19%)
Alignment                        : Split accross interleaves
Interleave, duration             : 42 ms (1.00 video frame)
Interleave, preload duration     : 500 ms
 
· Создавая локации для фильма, аниматоры черпали вдохновение в красотах национальных парков США, включая Йосемити и Йеллоустоун: Отель Old Faithful Inn в Национальном парке Йеллоустоун послужил прототипом базы отдыха.
Внимание! Информация о раздаче
При перезаливе указывайте, пож-та, автора рипов BZzz и R.G. TNClub, а также прикрепляйте лычку или баннер.
Пожалуйста, оставайтесь на раздаче как можно дольше!
Релиз специально для Tapochek.net
info [Профиль]  [ЛС] 

post 12-Ноя-2014 18:10 (спустя 46 минут) [-]0[+]

Топик был перенесен из форума Оформление раздач (R.G. TNClub) в форум Новинки 2013-2014 (Rips)

L
 

post 24-Ноя-2014 22:21 (спустя 12 дней) [-]0[+]

Топик был перенесен из форума Новинки 2013-2014 (Rips) в форум Зарубежные полнометражные мультфильмы

L
 

maestrodeo

Пол: Пол:Муж

Стаж: 1 год 11 месяцев

Сообщений: 9

Республика Конго
Рейтинг

post 17-Фев-2015 04:19 (спустя 3 месяца 4 дня) [-]0[+]

[Цитировать] 

Спасибо )
info [Профиль]  [ЛС] 

post 25-Сен-2015 09:42 (спустя 7 месяцев 8 дней) [-]0[+]

Топик был перенесен из форума Зарубежные полнометражные мультфильмы в форум Мультфильмы от R.G. TNclub

L
 
Показать сообщения:    
Ответить на тему

Текущее время: 05-Дек 16:28

Часовой пояс: GMT + 4



Вы не можете начинать темы
Вы не можете отвечать на сообщения
Вы не можете редактировать свои сообщения
Вы не можете удалять свои сообщения
Вы не можете голосовать в опросах
Вы не можете прикреплять файлы к сообщениям
Вы не можете скачивать файлы