Ошибка

Медведи-соседи / Boonie Bears, to the Rescue! (Динг Лианг, Fuyuan Liu) [2014, мультфильм, комедия, приключения, WEB-DLRip]

Ответить на тему
 
Автор Сообщение

L

Пол: Пол:Муж

Стаж: 6 лет 7 месяцев

Сообщений: 10784

Украина
Рейтинг

post 30-Окт-2014 09:05 0[+]

[Цитировать] 

Медведи-соседи / Boonie Bears, to the Rescue!

Название: Медведи-соседи
Оригинальное название: Boonie Bears, to the Rescue!
Год выхода: 2014
Жанр: мультфильм, комедия, приключения
Выпущено: Китай
Продолжительность: 01:35:00
Озвучивание: Дублированное [iTunes]

Режиссер: Динг Лианг, Fuyuan Liu
Роли дублировали: Анатолий Сергеев, Дмитрий Хрусталев, Тимур Батрутдинов

О фильме: Он — вне закона, по его пятам идут охотники за головами. Она знает тайгу, как свои пять пальцев, и только вместе они могут остаться в живых. Тайга общая: кто сильнее, тот и прав, а охота уже началась…

Sample

Качество: WEB-DLRip
Формат: AVI
Видео: XviD, 1705 kb/s, 720x400
Аудио: AC3, 384 kb/s (6 ch)
Общее
Полное имя : D:\Тапкораздачи\Medvedi.sosedi.2014.D.WEB-DLRip.1400MB.avi
Формат : AVI
Формат/Информация : Audio Video Interleave
Размер файла : 1,37 Гбайт
Продолжительность : 1 ч. 33 м.
Общий поток : 2098 Кбит/сек
Программа кодирования : VirtualDubMod 1.5.10.3 | www.virtualdub-fr.org || (build 2550/release)
Библиотека кодирования : VirtualDubMod build 2550/release

Видео
Идентификатор : 0
Формат : MPEG-4 Visual
Профиль формата : Advanced Simple@L5
Параметр BVOP формата : 2
Параметр QPel формата : Нет
Параметр GMC формата : Без точки перехода
Параметр матрицы формата : Default (MPEG)
Идентификатор кодека : XVID
Идентификатор кодека/Подсказка : XviD
Продолжительность : 1 ч. 33 м.
Битрейт : 1705 Кбит/сек
Ширина : 720 пикселей
Высота : 400 пикселей
Соотношение сторон : 16:9
Частота кадров : 24,000 кадра/сек
Цветовое пространство : YUV
Субдискретизация насыщенности : 4:2:0
Битовая глубина : 8 бит
Тип развёртки : Прогрессивная
Метод сжатия : С потерями
Бит/(Пиксели*Кадры) : 0.247
Размер потока : 1,11 Гбайт (81%)
Библиотека кодирования : XviD 1.2.1 (UTC 2008-12-04)

Аудио
Идентификатор : 1
Формат : AC-3
Формат/Информация : Audio Coding 3
Расширение режима : CM (complete main)
Параметр Endianness формата : Big
Идентификатор кодека : 2000
Продолжительность : 1 ч. 33 м.
Вид битрейта : Постоянный
Битрейт : 384 Кбит/сек
Каналы : 6 каналов
Расположение каналов : Front: L C R, Side: L R, LFE
Частота : 48,0 КГц
Битовая глубина : 16 бит
Метод сжатия : С потерями
Размер потока : 256 Мбайт (18%)
Выравнивание : Разделение по промежуткам
Продолжительность промежутка : 42 мс. (1,00 видеокадр)
Время предзагрузки промежутка : 500 мс.
info [Профиль]  [ЛС] 

pipka

Стаж: 7 лет 5 месяцев

Сообщений: 246

Рейтинг

post 30-Окт-2014 12:55 (спустя 3 часа) [-]11[+]

[Цитировать] 

Никогда бы не подумал что так могут выглядеть медведи.
info [Профиль]  [ЛС] 

BZzz

Пол: Пол:Муж

Стаж: 5 лет 1 месяц

Сообщений: 3647

Россия
Рейтинг

post 30-Окт-2014 14:01 (спустя 1 час 6 минут) [-]6[+]

[Цитировать] 

pipka писал(а):

Никогда бы не подумал что так могут выглядеть медведи.
просто это китайские медведи™)

_________________
info [Профиль]  [ЛС] 

Aladex

Пол: Пол:Муж

Стаж: 7 лет 4 месяца

Сообщений: 148

Россия
Рейтинг

post 30-Окт-2014 19:20 (спустя 5 часов) [-]0[+]

[Цитировать] 


_________________
info [Профиль]  [ЛС] 

topsex

Пол: Пол:Муж

Стаж: 6 лет 8 месяцев

Сообщений: 411

СССР
Рейтинг

post 30-Окт-2014 21:03 (спустя 1 час 43 минуты) [-]2[+]

[Цитировать] 

Скорее это африканские нигга-медведи, а судя по 3 скрину больше подходит название "Пед..ки Медведики" даже складнее как-то звучит...

_________________
i5@4.0Ghz, 8Gb RAM, Radeon R9 280x 3Gb, SSD, W8.1 x64 \ Xbox 360
info [Профиль]  [ЛС] 

mktrchan

Пол: Пол:Муж

Стаж: 6 лет 9 месяцев

Сообщений: 2

Рейтинг

post 30-Окт-2014 22:13 (спустя 1 час 9 минут) [-]0[+]

[Цитировать] 

Описание "О фильме: Он — вне закона, по его пятам идут охотники за головами. Она знает тайгу, как свои пять пальцев, и только вместе они могут остаться в живых. Тайга общая: кто сильнее, тот и прав, а охота уже началась… " с другого фильма....(Беглецы)
info [Профиль]  [ЛС] 

Briga

Пол: Пол:Муж

Стаж: 6 лет 9 месяцев

Сообщений: 139

Зимбабве
Рейтинг

post 30-Окт-2014 22:38 (спустя 25 минут) [-]3[+]

[Цитировать] 

я уже врят ли засну после того ,как увидел медведей на постере ,но калечить психику детей ,показывая им сей мульт ...
info [Профиль]  [ЛС] 

Ruwisk

Стаж: 5 лет

Сообщений: 155

Рейтинг

post 01-Ноя-2014 16:36 (спустя 1 день 17 часов) [-]1[+]

[Цитировать] 

мультик слишком уж детский
info [Профиль]  [ЛС] 

Giltias

Пол: Пол:Муж

Стаж: 6 лет 9 месяцев

Сообщений: 544

Россия
Рейтинг

post 10-Ноя-2014 21:46 (спустя 9 дней) [-]2[+]

[Цитировать] 

Briga писал(а):

я уже врят ли засну после того ,как увидел медведей на постере ,но калечить психику детей ,показывая им сей мульт ...
это еще куда не шло. в оригинальном телешоу медведи совсем на имбецилов похожи

_________________
Знал ли Создатель в шестой день творения,что уготовано миру людей...
info [Профиль]  [ЛС] 

post 11-Дек-2014 01:30 (спустя 1 месяц) [-]0[+]

Топик был перенесен из форума Новинки 2013-2014 (Rips) в форум Зарубежные полнометражные мультфильмы

BZzz
 
Показать сообщения:    
Ответить на тему

Текущее время: 05-Дек 16:36

Часовой пояс: GMT + 4



Вы не можете начинать темы
Вы не можете отвечать на сообщения
Вы не можете редактировать свои сообщения
Вы не можете удалять свои сообщения
Вы не можете голосовать в опросах
Вы не можете прикреплять файлы к сообщениям
Вы не можете скачивать файлы