Ошибка

Как приручить дракона 2 / How to Train Your Dragon 2 (Дин ДеБлуа) [2014, мультфильм, фэнтези, комедия, приключения, семейный, BDRip 720p] Dub + Ukr + Eng + Sub от R.G. TNClub

Ответить на тему
 
Автор Сообщение

R.G. TNClub

Стаж: 2 года 3 месяца

Сообщений: 515

Рейтинг

post 19-Окт-2014 16:34 2[+]

[Цитировать] 

Как приручить дракона 2 / How to Train Your Dragon 2

Страна: CША
Жанр: мультфильм, фэнтези, комедия, приключения, семейный
Год выпуска: 2014
Продолжительность: 01:41:55
Перевод:
  • Профессиональный (дублированный) [Лицензия EUR] - русский
  • Профессиональный (дублированный) [Лицензия EUR] - украинский
Субтитры: русские, украинские, английские
Оригинальная дорожка: английский
Главы: есть

Режиссер: Дин ДеБлуа
В ролях: Джей Барушель (Jay Baruchel), Кейт Бланшетт (Cate Blanchett), Джерард Батлер (Gerard Butler), Крэйг Фергюсон (Craig Ferguson), Америка Феррера (America Ferrera), Джона Хилл (Jonah Hill), Кристофер Минц-Плассе (Christopher Mintz-Plasse), ТиДжей Миллер (T.J. Miller)
Описание: С момента примирения викингов и драконов прошло пять лет. Пока Астрид, Сморкала и остальные ребята проводят время, соревнуясь друг с другом в популярных на острове драконьих гонках, Иккинг и Беззубик путешествуют по небу, составляя карту неизвестных мест. Когда одно из их приключений приводит к открытию тайной ледяной пещеры, которая является домом для сотен ранее невиданных диких драконов и таинственного драконьего всадника, два друга оказываются в центре битвы за защиту мира.


Качество видео: BDRip 720p (энкод L)
Формат видео: MKV

Видео: MPEG-4 AVC Video 5 900 kbps 1280 x 544 / 23,976 fps / 2.35:1 / High Profile 4.1
Аудио:
  • Russian: 48 kHz, AC3 Dolby Digital, 3/2 (L,C,R,l,r) + LFE ch, ~640 kbps
  • Ukrainian: 48 kHz, AC3 Dolby Digital, 3/2 (L,C,R,l,r) + LFE ch, ~448 kbps
  • English: 48 kHz, AC3 Dolby Digital, 3/2 (L,C,R,l,r) + LFE ch, ~640 kbps
Формат субтитров: softsub (SRT)

Раздача от &
HOW_TO_TRAIN_YOUR_DRAGON_2

Код:

Общее
Уникальный идентификатор                 : 239818829598555559583605407480726990562 (0xB46B6D30193B5A10970007FFF834AEE2)
Полное имя                               : D:\L@TNClub\Kak.Priruchit.Drakona.2.2014.BluRay.720p.rus.ukr.eng.sub.RG.TNClub.[by.L].mkv
Формат                                   : Matroska
Версия формата                           : Version 2
Размер файла                             : 5,43 Гбайт
Продолжительность                        : 1 ч. 41 м.
Общий поток                              : 7629 Кбит/сек
Название фильма                          : R.G. TNClub by L: Как приручить дракона 2 / How to Train Your Dragon 2 (2014)
Дата кодирования                         : UTC 2014-10-19 11:47:28
Программа кодирования                    : mkvmerge v3.2.0 ('Beginnings') built on Feb 12 2010 16:46:17
Библиотека кодирования                   : libebml v0.7.9 + libmatroska v0.8.1
Обложка                                  : Yes

Видео
Идентификатор                            : 1
Формат                                   : AVC
Формат/Информация                        : Advanced Video Codec
Профиль формата                          : High@L4.1
Параметр CABAC формата                   : Да
Параметр ReFrames формата                : 11 кадров
Идентификатор кодека                     : V_MPEG4/ISO/AVC
Продолжительность                        : 1 ч. 41 м.
Битрейт                                  : 5900 Кбит/сек
Ширина                                   : 1280 пикселей
Высота                                   : 544 пикселя
Соотношение сторон                       : 2,35:1
Режим частоты кадров                     : Постоянный
Частота кадров                           : 23,976 кадра/сек
Цветовое пространство                    : YUV
Субдискретизация насыщенности            : 4:2:0
Битовая глубина                          : 8 бит
Тип развёртки                            : Прогрессивная
Бит/(Пиксели*Кадры)                      : 0.353
Размер потока                            : 4,09 Гбайт (75%)
Библиотека кодирования                   : x264 core 142 r2431 ac76440
Настройки программы                      : cabac=1 / ref=11 / deblock=1:-2:-1 / analyse=0x3:0x133 / me=umh / subme=11 / psy=1 / psy_rd=1.05:0.10 / mixed_ref=1 / me_range=48 / chroma_me=1 / trellis=2 / 8x8dct=1 / cqm=0 / deadzone=21,11 / fast_pskip=0 / chroma_qp_offset=-4 / threads=6 / lookahead_threads=1 / sliced_threads=0 / nr=0 / decimate=1 / interlaced=0 / bluray_compat=0 / constrained_intra=0 / bframes=9 / b_pyramid=2 / b_adapt=2 / b_bias=0 / direct=3 / weightb=1 / open_gop=0 / weightp=2 / keyint=230 / keyint_min=21 / scenecut=40 / intra_refresh=0 / rc_lookahead=60 / rc=2pass / mbtree=0 / bitrate=5900 / ratetol=1.0 / qcomp=0.70 / qpmin=0 / qpmax=69 / qpstep=4 / cplxblur=20.0 / qblur=0.5 / vbv_maxrate=50000 / vbv_bufsize=62500 / nal_hrd=none / filler=0 / ip_ratio=1.35 / pb_ratio=1.25 / aq=2:0.90
Язык                                     : English
Default                                  : Нет
Forced                                   : Нет

Аудио #1
Идентификатор                            : 2
Формат                                   : AC-3
Формат/Информация                        : Audio Coding 3
Расширение режима                        : CM (complete main)
Параметр Endianness формата              : Big
Идентификатор кодека                     : A_AC3
Продолжительность                        : 1 ч. 41 м.
Вид битрейта                             : Постоянный
Битрейт                                  : 640 Кбит/сек
Каналы                                   : 6 каналов
Расположение каналов                     : Front: L C R, Side: L R, LFE
Частота                                  : 48,0 КГц
Битовая глубина                          : 16 бит
Метод сжатия                             : С потерями
Размер потока                            : 467 Мбайт (8%)
Заголовок                                : Дубляж, EUR, AC3 5.1 @ 640
Язык                                     : Russian
Default                                  : Да
Forced                                   : Нет

Аудио #2
Идентификатор                            : 3
Формат                                   : AC-3
Формат/Информация                        : Audio Coding 3
Расширение режима                        : CM (complete main)
Параметр Endianness формата              : Big
Идентификатор кодека                     : A_AC3
Продолжительность                        : 1 ч. 41 м.
Вид битрейта                             : Постоянный
Битрейт                                  : 448 Кбит/сек
Каналы                                   : 6 каналов
Расположение каналов                     : Front: L C R, Side: L R, LFE
Частота                                  : 48,0 КГц
Битовая глубина                          : 16 бит
Метод сжатия                             : С потерями
Размер потока                            : 327 Мбайт (6%)
Заголовок                                : Дубляж, EUR, AC3 5.1 @ 448
Язык                                     : Ukrainian
Default                                  : Нет
Forced                                   : Нет

Аудио #3
Идентификатор                            : 4
Формат                                   : AC-3
Формат/Информация                        : Audio Coding 3
Расширение режима                        : CM (complete main)
Параметр Endianness формата              : Big
Идентификатор кодека                     : A_AC3
Продолжительность                        : 1 ч. 41 м.
Вид битрейта                             : Постоянный
Битрейт                                  : 640 Кбит/сек
Каналы                                   : 6 каналов
Расположение каналов                     : Front: L C R, Side: L R, LFE
Частота                                  : 48,0 КГц
Битовая глубина                          : 16 бит
Метод сжатия                             : С потерями
Размер потока                            : 467 Мбайт (8%)
Заголовок                                : Оригинал, AC3 5.1 @ 640
Язык                                     : English
Default                                  : Нет
Forced                                   : Нет

Текст #1
Идентификатор                            : 5
Формат                                   : UTF-8
Идентификатор кодека                     : S_TEXT/UTF8
Идентификатор кодека/Информация          : UTF-8 Plain Text
Язык                                     : Russian
Default                                  : Да
Forced                                   : Нет

Текст #2
Идентификатор                            : 6
Формат                                   : UTF-8
Идентификатор кодека                     : S_TEXT/UTF8
Идентификатор кодека/Информация          : UTF-8 Plain Text
Язык                                     : Ukrainian
Default                                  : Нет
Forced                                   : Нет

Текст #3
Идентификатор                            : 7
Формат                                   : UTF-8
Идентификатор кодека                     : S_TEXT/UTF8
Идентификатор кодека/Информация          : UTF-8 Plain Text
Язык                                     : English
Default                                  : Нет
Forced                                   : Нет

Меню
00:00:00.000                             : en:00:00:00.000
00:03:27.999                             : en:00:03:27.999
00:05:20.695                             : en:00:05:20.695
00:07:46.007                             : en:00:07:46.007
00:10:16.032                             : en:00:10:16.032
00:13:16.337                             : en:00:13:16.337
00:16:59.060                             : en:00:16:59.060
00:20:01.700                             : en:00:20:01.700
00:23:43.255                             : en:00:23:43.255
00:27:14.466                             : en:00:27:14.466
00:29:21.468                             : en:00:29:21.468
00:33:41.937                             : en:00:33:41.937
00:37:05.473                             : en:00:37:05.473
00:39:06.970                             : en:00:39:06.970
00:40:59.165                             : en:00:40:59.165
00:45:03.993                             : en:00:45:03.993
00:47:16.625                             : en:00:47:16.625
00:51:51.525                             : en:00:51:51.525
00:54:35.731                             : en:00:54:35.731
00:56:15.998                             : en:00:56:15.998
01:00:33.171                             : en:01:00:33.171
01:04:28.782                             : en:01:04:28.782
01:06:34.949                             : en:01:06:34.949
01:09:44.138                             : en:01:09:44.138
01:14:01.854                             : en:01:14:01.854
01:18:35.127                             : en:01:18:35.127
01:21:07.154                             : en:01:21:07.154
01:22:55.053                             : en:01:22:55.053
01:24:30.065                             : en:01:24:30.065
01:28:04.654                             : en:01:28:04.654
01:31:03.500                             : en:01:31:03.500
01:32:21.995                             : en:01:32:21.995

Код:

---[Information] [19.10.2014 14:08:21] x264 [info]: frame I:1211  Avg QP:12.83  size:138244  PSNR Mean Y:50.34 U:54.40 V:54.33 Avg:51.30 Global:50.63
---[Information] [19.10.2014 14:08:21] x264 [info]: frame P:38642 Avg QP:14.91  size: 52262  PSNR Mean Y:48.52 U:52.41 V:52.33 Avg:49.44 Global:48.70
---[Information] [19.10.2014 14:08:21] x264 [info]: frame B:106763 Avg QP:16.87  size: 21741  PSNR Mean Y:47.47 U:51.38 V:51.29 Avg:48.38 Global:47.61
---[Information] [19.10.2014 14:08:21] x264 [info]: consecutive B-frames:  3.9%  4.4% 15.0% 36.5% 17.1% 15.4%  2.2%  4.0%  0.9%  0.6%
---[Information] [19.10.2014 14:08:21] x264 [info]: mb I  I16..4:  7.1% 63.3% 29.6%
---[Information] [19.10.2014 14:08:21] x264 [info]: mb P  I16..4:  2.1% 23.4%  5.5%  P16..4: 21.1% 25.9% 13.6%  4.4%  1.0%    skip: 3.1%
---[Information] [19.10.2014 14:08:21] x264 [info]: mb B  I16..4:  0.5%  4.7%  0.9%  B16..8: 29.4% 25.1%  6.0%  direct: 8.8%  skip:24.5%  L0:39.0% L1:39.7% BI:21.3%
---[Information] [19.10.2014 14:08:21] x264 [info]: 8x8 transform intra:75.0% inter:45.3%
---[Information] [19.10.2014 14:08:21] x264 [info]: direct mvs  spatial:97.9% temporal:2.1%
---[Information] [19.10.2014 14:08:21] x264 [info]: coded y,uvDC,uvAC intra: 85.4% 83.0% 65.6% inter: 28.5% 30.4% 13.8%
---[Information] [19.10.2014 14:08:21] x264 [info]: i16 v,h,dc,p: 14% 16%  5% 65%
---[Information] [19.10.2014 14:08:21] x264 [info]: i8 v,h,dc,ddl,ddr,vr,hd,vl,hu: 10% 12% 10%  9% 11% 10% 12% 11% 15%
---[Information] [19.10.2014 14:08:21] x264 [info]: i4 v,h,dc,ddl,ddr,vr,hd,vl,hu:  8% 11%  6%  9% 16% 13% 14% 10% 13%
---[Information] [19.10.2014 14:08:21] x264 [info]: i8c dc,h,v,p: 46% 26% 15% 12%
---[Information] [19.10.2014 14:08:21] x264 [info]: Weighted P-Frames: Y:2.9% UV:2.1%
---[Information] [19.10.2014 14:08:21] x264 [info]: ref P L0: 54.3%  6.6% 14.4%  7.0%  5.1%  3.7%  3.0%  1.8%  1.5%  1.2%  1.1%  0.3%  0.0%
---[Information] [19.10.2014 14:08:21] x264 [info]: ref B L0: 76.4% 13.0%  4.4%  2.1%  1.4%  1.0%  0.8%  0.5%  0.3%  0.1%
---[Information] [19.10.2014 14:08:21] x264 [info]: ref B L1: 93.0%  7.0%
---[Information] [19.10.2014 14:08:21] x264 [info]: SSIM Mean Y:0.9910749 (20.494db)
---[Information] [19.10.2014 14:08:21] x264 [info]: PSNR Mean Y:47.767 U:51.679 V:51.589 Avg:48.686 Global:47.893 kb/s:5897.59
---[Information] [19.10.2014 14:08:21] encoded 146616 frames, 4.66 fps, 5897.59 kb/s
Внимание! Информация о раздаче
При перезаливе указывайте, пож-та, автора рипов L и R.G. TNClub, а также прикрепляйте лычку или баннер.
Пожалуйста, оставайтесь на раздаче как можно дольше!
Релиз специально для Tapochek.net


info [Профиль]  [ЛС] 

post 19-Окт-2014 16:35 (спустя 59 секунд) [-]0[+]

Топик был перенесен из форума Оформление раздач (R.G. TNClub) в форум Новинки 2013-2014 (DVD, HD DVD, Blu-ray, HD Rips, Web-DL)

L
 

D_I_O

Пол: Пол:Муж

Стаж: 7 лет 6 месяцев

Сообщений: 6

Россия
Рейтинг

post 20-Окт-2014 20:32 (спустя 1 день 3 часа) [-]0[+]

[Цитировать] 

Мульт так себе... первая часть получшее была.
info [Профиль]  [ЛС] 

post 11-Дек-2014 01:14 (спустя 1 месяц 21 день) [-]0[+]

Топик был перенесен из форума Новинки 2013-2014 (Web-DL, DVD, HD DVD, Blu-ray, HD Rips) в форум Мультфильмы (HD Video)

BZzz
 

post 25-Сен-2015 09:41 (спустя 11 месяцев 4 дня) [-]0[+]

Топик был перенесен из форума Мультфильмы (HD Video) в форум Мультфильмы от R.G. TNclub

L
 
Показать сообщения:    
Ответить на тему

Текущее время: 07-Дек 14:41

Часовой пояс: GMT + 4



Вы не можете начинать темы
Вы не можете отвечать на сообщения
Вы не можете редактировать свои сообщения
Вы не можете удалять свои сообщения
Вы не можете голосовать в опросах
Вы не можете прикреплять файлы к сообщениям
Вы не можете скачивать файлы