Ошибка

До окончания фрилича осталось:


Как приручить дракона 2 / How to Train Your Dragon 2 (Дин ДеБлуа / Dean DeBlois) [2014, Мультфильм, Фэнтези, Комедия, Приключения, Семейный, BDrip-AVC, 3D] Half OverUnder / Вертикальная анаморфная стереопара

Ответить на тему
 
Автор Сообщение

Dr.Zero

Пол: Пол:Муж

Стаж: 7 лет 5 месяцев

Сообщений: 198

Украина
Рейтинг

post 18-Окт-2014 19:01 0[+]

[Цитировать] 

pic="http://s019.radikal.ru/i628/1410/11/da0d46adb195.png"
Кaк приpучить дpакона 2 в 3Д / Hоw to Тrain Yоur Drаgon 2 3D


Год выпуска: 2014
Страна: США (DreamWorks Animation SKG)
Жанр: Мультфильм, Фэнтези, Комедия, Приключения, Семейный
Продолжительность: 01:41:55
Перевод: Профессиональный дублированный
Язык субтитров: Русский, Украинский, Английский
Режиссер:
  • Дин ДеБлуа / Dean DeBlois

Роли озвучивали (дублировали):


Hiccup - Джей Барушель (Андрей Лёвин)
Valka - Кейт Бланшетт (Регина Щукина)
Stoick - Джерард Батлер (Валерий Соловьев)
Gobber - Крэйг Фергюсон (Михаил Боярский)
Astrid - Америка Феррера (Софья Ануфриева)
Snotlout - Джона Хилл (Михаил Хрусталев)
Fishlegs - Кристофер Минц-Плассе (Игорь Виноградов)
Tuffnut - ТиДжей Миллер (Александр Разбаш)
Ruffnut - Кристен Уиг (Марианна Семенова)
Drago - Джимон Хонсу (Сергей Козик)
Eret - Кит Харингтон (Александр Койгеров)

С момента примирения викингов и драконов прошло пять лет. Пока Астрид, Сморкала и остальные ребята проводят время, соревнуясь друг с другом в популярных на острове драконьих гонках, Иккинг и Беззубик путешествуют по небу, составляя карту неизвестных мест. Когда одно из их приключений приводит к открытию тайной ледяной пещеры, которая является домом для сотен ранее невиданных диких драконов и таинственного драконьего всадника, два друга оказываются в центре битвы за защиту мира.
|
Автор рипа Ash61
Премьера: 16 мая 2014 (12 июня 2014)
Релиз на Blu-Ray (DVD) (Россия): 1 ноября 2014
Бюджет: $145 000 000
Кассовые сборы: $614 766 872
Топ250 Кинопоиска: #117 (18.10.2014)
General
Unique ID : 225161712466322031259123524968727075802 (0xA964918513A4F20DAF69AFA51B6A5BDA)
Complete name : E:\HowToTrainYourDragon2(2014)3D-halfOU(Ash61).mkv
Format : Matroska
Format version : Version 2
File size : 7.44 GiB
Duration : 1h 41mn
Overall bit rate : 10.5 Mbps
Movie name : Как приручить дракона 2 / How to Train Your Dragon 2 (2014) 3D
Encoded date : UTC 2014-10-18 08:41:13
Writing application : mkvmerge v5.8.0 ('No Sleep / Pillow') built on Sep 2 2012 15:37:04
Writing library : libebml v1.2.3 + libmatroska v1.3.0

Video
ID : 1
Format : AVC
Format/Info : Advanced Video Codec
Format profile : High@L4.1
Format settings, CABAC : Yes
Format settings, ReFrames : 4 frames
Codec ID : V_MPEG4/ISO/AVC
Duration : 1h 41mn
Bit rate : 8 519 Kbps
Width : 1 920 pixels
Height : 1 080 pixels
Display aspect ratio : 16:9
Frame rate mode : Constant
Frame rate : 23.976 fps
Color space : YUV
Chroma subsampling : 4:2:0
Bit depth : 8 bits
Scan type : Progressive
Bits/(Pixel*Frame) : 0.171
Stream size : 6.06 GiB (81%)
Title : BDRip by Ash61
Writing library : x264 core 138 r2358 9e941d1
Encoding settings : cabac=1 / ref=4 / deblock=1:-3:-3 / analyse=0x3:0x113 / me=umh / subme=10 / psy=1 / psy_rd=1.00:0.15 / mixed_ref=1 / me_range=32 / chroma_me=1 / trellis=2 / 8x8dct=1 / cqm=0 / deadzone=21,11 / fast_pskip=1 / chroma_qp_offset=-3 / threads=12 / lookahead_threads=2 / sliced_threads=0 / nr=0 / decimate=1 / interlaced=0 / bluray_compat=0 / constrained_intra=0 / bframes=8 / b_pyramid=2 / b_adapt=2 / b_bias=0 / direct=3 / weightb=1 / open_gop=0 / weightp=2 / keyint=250 / keyint_min=23 / scenecut=40 / intra_refresh=0 / rc_lookahead=60 / rc=crf / mbtree=1 / crf=17.0 / qcomp=0.70 / qpmin=0 / qpmax=69 / qpstep=4 / vbv_maxrate=40000 / vbv_bufsize=30000 / crf_max=0.0 / nal_hrd=none / frame-packing=4 / ip_ratio=1.40 / aq=1:0.70
Language : English
Default : Yes
Forced : No

Audio #1
ID : 2
Format : AC-3
Format/Info : Audio Coding 3
Mode extension : CM (complete main)
Format settings, Endianness : Big
Codec ID : A_AC3
Duration : 1h 41mn
Bit rate mode : Constant
Bit rate : 640 Kbps
Channel(s) : 6 channels
Channel positions : Front: L C R, Side: L R, LFE
Sampling rate : 48.0 KHz
Bit depth : 16 bits
Compression mode : Lossy
Stream size : 467 MiB (6%)
Title : Дубляж - BD 3D Eur
Language : Russian
Default : Yes
Forced : No

Audio #2
ID : 3
Format : AC-3
Format/Info : Audio Coding 3
Mode extension : CM (complete main)
Format settings, Endianness : Big
Codec ID : A_AC3
Duration : 1h 41mn
Bit rate mode : Constant
Bit rate : 448 Kbps
Channel(s) : 6 channels
Channel positions : Front: L C R, Side: L R, LFE
Sampling rate : 48.0 KHz
Bit depth : 16 bits
Compression mode : Lossy
Stream size : 327 MiB (4%)
Title : Дубляж - BD 3D Eur
Language : Ukrainian
Default : No
Forced : No

Audio #3
ID : 4
Format : AC-3
Format/Info : Audio Coding 3
Mode extension : CM (complete main)
Format settings, Endianness : Big
Codec ID : A_AC3
Duration : 1h 41mn
Bit rate mode : Constant
Bit rate : 640 Kbps
Channel(s) : 6 channels
Channel positions : Front: L C R, Side: L R, LFE
Sampling rate : 48.0 KHz
Bit depth : 16 bits
Compression mode : Lossy
Stream size : 467 MiB (6%)
Title : Original - BD 3D Eur
Language : English
Default : No
Forced : No

Text #1
ID : 5
Format : UTF-8
Codec ID : S_TEXT/UTF8
Codec ID/Info : UTF-8 Plain Text
Title : Форсированные - iTunes
Language : Russian
Default : Yes
Forced : No

Text #2
ID : 6
Format : UTF-8
Codec ID : S_TEXT/UTF8
Codec ID/Info : UTF-8 Plain Text
Title : Полные - iTunes
Language : Russian
Default : No
Forced : No

Text #3
ID : 7
Format : UTF-8
Codec ID : S_TEXT/UTF8
Codec ID/Info : UTF-8 Plain Text
Title : Полные - iTunes
Language : Ukrainian
Default : No
Forced : No

Text #4
ID : 8
Format : UTF-8
Codec ID : S_TEXT/UTF8
Codec ID/Info : UTF-8 Plain Text
Title : SDH - iTunes
Language : English
Default : No
Forced : No

Menu
00:00:00.000 : :1
00:03:27.999 : :2
00:05:20.695 : :3
00:07:46.007 : :4
00:10:16.032 : :5
00:13:16.337 : :6
00:16:59.060 : :7
00:20:01.700 : :8
00:23:43.255 : :9
00:27:14.466 : :10
00:29:21.468 : :11
00:33:41.937 : :12
00:37:05.473 : :13
00:39:06.970 : :14
00:40:59.165 : :15
00:45:03.993 : :16
00:47:16.625 : :17
00:51:51.525 : :18
00:54:35.731 : :19
00:56:15.998 : :20
01:00:33.171 : :21
01:04:28.782 : :22
01:06:34.949 : :23
01:09:44.138 : :24
01:14:01.854 : :25
01:18:35.127 : :26
01:21:07.154 : :27
01:22:55.053 : :28
01:24:30.065 : :29
01:28:04.654 : :30
01:31:03.500 : :31
01:32:21.995 : :32

Качество: BDRip
Формат: MKV
Формат 3D: Half OverUnder / Вертикальная анаморфная стереопара
Видео кодек: H.264
Аудио кодек: AC3
Видео: AVC / 23,976 fps / 1920х1080p / ~8.50 Mbps
Аудио:
#1 - Русский / AC3 / 48 KHz / 5.1 ch / 640 Kbps (Дубляж - BD 3D Eur)
#2 - Украинский / AC3 / 48 KHz / 5.1 ch / 640 Kbps (Дубляж - BD 3D Eur)
#3 - Английский / AC3 / 48 KHz / 5.1 ch / 640 Kbps (Original - BD 3D Eur)
Субтитры (SRT):
Вшитые (softsub):
#1 - Русские Форсированные [iTunes] (включены по умолчанию)
#2 - Русские Полные [iTunes]
#3 - Украинские Полные [iTunes]
#4 - English SDH [iTunes]

info [Профиль]  [ЛС] 

try767

Стаж: 7 лет 8 месяцев

Сообщений: 2083

Рейтинг

post 19-Окт-2014 08:10 (спустя 13 часов) [-]-3[+]

[Цитировать] 

Dr.Zero
введи англ название английскими буквами. в особенности слово dragon.

ещё точнее - букву а Улыбаюсь

и... видео сплюснутое по вертикали в сравнении с другими релизами.
ну или если сравнивать скриншоты и скриншоты для качества 3д

_________________
это подпись, серьёзно. kolob_103
-
info [Профиль]  [ЛС] 

L

Пол: Пол:Муж

Стаж: 6 лет 8 месяцев

Сообщений: 10838

Украина
Рейтинг

post 19-Окт-2014 10:03 (спустя 1 час 53 минуты) [-]0[+]

[Цитировать] 

try767
Поменял, спасибо.

_________________
info [Профиль]  [ЛС] 

post 08-Ноя-2014 11:30 (спустя 20 дней) [-]0[+]

Топик был перенесен из форума 3D Новинки в форум Новинки (3D)

L
 

budan77

Пол: Пол:Муж

Стаж: 3 года 9 месяцев

Сообщений: 17

Россия
Рейтинг

post 15-Ноя-2014 01:37 (спустя 26 дней) [-]0[+]

[Цитировать] 

Давно качаю рипы Ash61 на известном трекере...Рекомендую=)))Спасибо что теперь и здесь=)

_________________
info [Профиль]  [ЛС] 

post 18-Ноя-2014 17:02 (спустя 3 дня) [-]0[+]

Топик был перенесен из форума Новинки (3D) в форум 3D

BZzz
 

Painerman

Пол: Пол:Муж

Стаж: 6 лет 9 месяцев

Сообщений: 14

Россия
Рейтинг

post 31-Май-2015 14:15 (спустя 6 месяцев 16 дней) [-]0[+]

[Цитировать] 

Спасибо за сжатую версию! А то раздают по 38Гб - на телике не посмотришь!

_________________
С Уважухой, Алёха!
info [Профиль]  [ЛС] 
Показать сообщения:    
Ответить на тему

Текущее время: 10-Дек 20:39

Часовой пояс: GMT + 4



Вы не можете начинать темы
Вы не можете отвечать на сообщения
Вы не можете редактировать свои сообщения
Вы не можете удалять свои сообщения
Вы не можете голосовать в опросах
Вы не можете прикреплять файлы к сообщениям
Вы не можете скачивать файлы