Ошибка

Как приручить дракона 2 / How to Train Your Dragon 2 (Дин ДеБлуа) [2014 г., мультфильм, фэнтези, комедия, приключения, семейный, BDRemux 1080p]

Ответить на тему
 
Автор Сообщение

Basketballman

Пол: Пол:Муж

Стаж: 7 лет 7 месяцев

Сообщений: 281

Россия
Рейтинг

post 18-Окт-2014 13:45 7[+]

[Цитировать] 

Как приручить дракона 2 / How to Train Your Dragon 2

Год выпуска: 2014
Страна: США
Жанр: мультфильм, фэнтези, комедия, приключения, семейный
Продолжительность: 01:41:55
Перевод: профессиональный (полное дублирование) [лицензия]
Субтитры: русские, украинские, английские
Режиссер:
  • Дин ДеБлуа
В ролях:
  • Джей Барушель, Кейт Бланшетт, Джерард Батлер, Крэйг Фергюсон, Америка Феррера, Джона Хилл, Кристофер Минц-Плассе, ТиДжей Миллер, Кристен Уиг, Джимон Хонсу

Описание: С момента примирения викингов и драконов прошло пять лет. Пока Астрид, Сморкала и остальные ребята проводят время, соревнуясь друг с другом в популярных на острове драконьих гонках, Иккинг и Беззубик путешествуют по небу, составляя карту неизвестных мест. Когда одно из их приключений приводит к открытию тайной ледяной пещеры, которая является домом для сотен ранее невиданных диких драконов и таинственного драконьего всадника, два друга оказываются в центре битвы за защиту мира.


Качество: BDRemux 1080p
Формат: MKV
Видео кодек: MPEG-4
Аудио кодек: AC3, DTS, DTS-HD
Видео: 1920x1080, 23.976 fps, 23.3 Mбит/с
Аудио 1: Russian: DTS, 6 ch, 768 Kbps
Аудио 2: Ukrainian: AC3, 6 ch, 448 Kbps
Аудио 3: English: DTS-HD MA, 8 ch, 5237 Kbps
Субтитры: SRT

Sample
General
Unique ID : 242279040609860373909214345319650616521 (0xB6453EF4AA482BFC9CF1AFF23E3EE4C9)
Complete name : D:\Кино\How To Train Your Dragon 2 BDRemux.mkv
Format : Matroska
Format version : Version 2
File size : 21.2 GiB
Duration : 1h 41mn
Overall bit rate mode : Variable
Overall bit rate : 29.7 Mbps
Movie name : Как приручить дракона 2 / How to Train Your Dragon 2 (2014) BDRemux 1080p
Encoded date : UTC 2014-10-17 20:49:37
Writing application : mkvmerge v5.8.0 ('No Sleep / Pillow') built on Sep 2 2012 15:37:04
Writing library : libebml v1.2.3 + libmatroska v1.3.0

Video
ID : 1
Format : AVC
Format/Info : Advanced Video Codec
Format profile : High@L4.1
Format settings, CABAC : Yes
Format settings, ReFrames : 4 frames
Codec ID : V_MPEG4/ISO/AVC
Duration : 1h 41mn
Bit rate mode : Variable
Maximum bit rate : 32.2 Mbps
Width : 1 920 pixels
Height : 1 080 pixels
Display aspect ratio : 16:9
Frame rate mode : Constant
Frame rate : 23.976 fps
Color space : YUV
Chroma subsampling : 4:2:0
Bit depth : 8 bits
Scan type : Progressive
Title : Как приручить дракона 2 / How to Train Your Dragon 2 (2014)
Language : English
Default : No
Forced : No

Audio #1
ID : 2
Format : DTS
Format/Info : Digital Theater Systems
Mode : 16
Format settings, Endianness : Big
Codec ID : A_DTS
Duration : 1h 41mn
Bit rate mode : Constant
Bit rate : 768 Kbps
Channel count : 6 channels
Channel positions : Front: L C R, Side: L R, LFE
Sampling rate : 48.0 KHz
Bit depth : 24 bits
Compression mode : Lossy
Stream size : 560 MiB (3%)
Title : DUB
Language : Russian
Default : No
Forced : Yes

Audio #2
ID : 3
Format : AC-3
Format/Info : Audio Coding 3
Mode extension : CM (complete main)
Format settings, Endianness : Big
Codec ID : A_AC3
Duration : 1h 41mn
Bit rate mode : Constant
Bit rate : 448 Kbps
Channel count : 6 channels
Channel positions : Front: L C R, Side: L R, LFE
Sampling rate : 48.0 KHz
Bit depth : 16 bits
Compression mode : Lossy
Stream size : 327 MiB (2%)
Title : DUB
Language : Ukrainian
Default : No
Forced : No

Audio #3
ID : 4
Format : DTS
Format/Info : Digital Theater Systems
Format profile : MA / Core
Mode : 16
Format settings, Endianness : Big
Codec ID : A_DTS
Duration : 1h 41mn
Bit rate mode : Variable
Bit rate : Unknown / 1 509 Kbps
Channel count : 8 channels / 6 channels
Channel positions : Front: L C R, Side: L R, Back: L R, LFE / Front: L C R, Side: L R, LFE
Sampling rate : 48.0 KHz
Bit depth : 24 bits
Compression mode : Lossless / Lossy
Title : Surround 7.1
Language : English
Default : No
Forced : No

Text #1
ID : 5
Format : UTF-8
Codec ID : S_TEXT/UTF8
Codec ID/Info : UTF-8 Plain Text
Title : Forced
Language : Russian
Default : Yes
Forced : Yes

Text #2
ID : 6
Format : UTF-8
Codec ID : S_TEXT/UTF8
Codec ID/Info : UTF-8 Plain Text
Title : Full
Language : Russian
Default : No
Forced : No

Text #3
ID : 7
Format : UTF-8
Codec ID : S_TEXT/UTF8
Codec ID/Info : UTF-8 Plain Text
Title : Full
Language : Ukrainian
Default : No
Forced : No

Text #4
ID : 8
Format : UTF-8
Codec ID : S_TEXT/UTF8
Codec ID/Info : UTF-8 Plain Text
Language : English
Default : No
Forced : No

Menu
00:00:00.000 : en:Chapter 01
00:03:27.999 : en:Chapter 02
00:05:20.695 : en:Chapter 03
00:07:46.007 : en:Chapter 04
00:10:16.032 : en:Chapter 05
00:13:16.337 : en:Chapter 06
00:16:59.059 : en:Chapter 07
00:20:01.700 : en:Chapter 08
00:23:43.255 : en:Chapter 09
00:27:14.466 : en:Chapter 10
00:29:21.468 : en:Chapter 11
00:33:41.936 : en:Chapter 12
00:37:05.473 : en:Chapter 13
00:39:06.969 : en:Chapter 14
00:40:59.165 : en:Chapter 15
00:45:03.992 : en:Chapter 16
00:47:16.625 : en:Chapter 17
00:51:51.525 : en:Chapter 18
00:54:35.730 : en:Chapter 19
00:56:15.997 : en:Chapter 20
01:00:33.171 : en:Chapter 21
01:04:28.781 : en:Chapter 22
01:06:34.949 : en:Chapter 23
01:09:44.138 : en:Chapter 24
01:14:02.146 : en:Chapter 25
01:18:35.127 : en:Chapter 26
01:21:07.153 : en:Chapter 27
01:22:55.053 : en:Chapter 28
01:24:30.065 : en:Chapter 29
01:28:04.654 : en:Chapter 30
01:31:03.499 : en:Chapter 31
01:32:21.994 : en:Chapter 32
info [Профиль]  [ЛС] 

FLIPPER

Пол: Пол:Муж

Стаж: 8 лет 1 месяц

Сообщений: 51

Россия
Рейтинг

post 18-Окт-2014 15:38 (спустя 1 час 52 минуты) [-]3[+]

[Цитировать] 

Оперативно!!!забираю,встаем на раздачу народ нужны сиды)))
info [Профиль]  [ЛС] 

Constant

Пол: Пол:Муж

Стаж: 7 лет 9 месяцев

Сообщений: 499

Россия
Рейтинг

post 18-Окт-2014 16:57 (спустя 1 час 19 минут) [-]2[+]

[Цитировать] 

Спасибо, помогу с раздачей kolob_118

_________________
Xbox 360 slim 250gb+kinect LT+2.0 Dashboard 2.0 16536
PC CPU FX8320 RAM 8gb 1600 GPU R9 270X SSD 120 HDD 2TB Power 750W
info [Профиль]  [ЛС] 

BaH0

Пол: Пол:Муж

Стаж: 5 лет 3 месяца

Сообщений: 40

Украина
Рейтинг

post 18-Окт-2014 18:48 (спустя 1 час 50 минут) [-]3[+]

[Цитировать] 

Йо-хо-хо, все на скачивание. Помню 1-я часть была прикольной, я хоть давно не ребенок, но интересно)
info [Профиль]  [ЛС] 

skeab

Пол: Пол:Муж

Стаж: 7 лет 4 месяца

Сообщений: 23

СССР
Рейтинг

post 18-Окт-2014 20:16 (спустя 1 час 27 минут) [-]2[+]

[Цитировать] 

Обе части великолепны! Качаю и остаюсь на раздаче.

_________________
info [Профиль]  [ЛС] 

post 11-Дек-2014 01:12 (спустя 1 месяц 23 дня) [-]0[+]

Топик был перенесен из форума Новинки 2013-2014 (Web-DL, DVD, HD DVD, Blu-ray, HD Rips) в форум Мультфильмы (HD Video)

BZzz
 
Показать сообщения:    
Ответить на тему

Текущее время: 29-Июн 20:06

Часовой пояс: GMT + 4



Вы не можете начинать темы
Вы не можете отвечать на сообщения
Вы не можете редактировать свои сообщения
Вы не можете удалять свои сообщения
Вы не можете голосовать в опросах
Вы не можете прикреплять файлы к сообщениям
Вы не можете скачивать файлы